Торрент файл
скачать торрент магнет ссылка Добавлен: 11 июн 2015, 20:22
Размер: 14.9 ГБ
Сидеров: 20
Личеров: 1
Автор

СообщениеДобавлено: 11 июн 2015, 20:22 

Не в сети
Супермодератор
Аватара пользователя
Дата регистрации:
15 фев 2012, 16:44
Возраст: 29
Спасибо: 7379 / 2147
Сообщения: 76215
Год выпуска: 2000
Страна: США, Великобритания
Жанр: драма, мелодрама, комедия, музыка
Продолжительность: 01:53:40
Перевод: профессиональный многоголосый, профессиональный двухголосый, авторский

Режиссёр: Стивен Фрирз

В ролях: Джон Кьюсак, Джек Блэк, Кэтрин Зета Джонс, Лиза Боне, Джоэль Картер, Джоан Кьюсак, Сэра Гилберт, Ибен Яйль, Тодд Луизо, Лили Тейлор, Наташа Грегсон Вагнер, Тим Роббинс, Харольд Рэмис

Описание: Роб — истинный фанатик своего дела, но, к сожалению, этим любимым делом оказывается не шпионская деятельность или полёт в космос, а обычная продажа пластинок. Так же как эти пережитки прошлого, его будни спокойно идут по кругу. Но однажды игла его судьбы с визгом соскакивает: любимая девушка Роба уходит к другому! Теперь одержимому меломану придётся прокрутить свою жизнь назад, чтобы найти фальшивую ноту. Ведь где-то он должен был совершить ошибку... Фильм снят по мотивам романа Ника Хорнби «Hi-Fi» (High Fidelity, 1995).



Качество: BDRip 1080p Сравнение с исходником
Формат: MKV
Видео: MPEG-4 AVC, 13.5 Mбит/с, 1920x1040, 23,976 кадра/с
Аудио 1: русский, AC3, 192 kbps, 2 ch, 48 kHz [профессиональный многоголосый, 5 канал]
Аудио 2: русский, AC3, 192 kbps, 2 ch, 48 kHz [профессиональный двухголосый, HTB+]
Аудио 3: русский, DTS, 1509 kbps, 6 ch, 48 kHz [профессиональный двухголосый, Видеосервис]
Аудио 4: русский, DTS, 1509 kbps, 6 ch, 48 kHz [авторский, Евгений Гранкин]
Аудио 5: английский, DTS, 1509 kbps, 6 ch, 48 kHz [оригинал]
Субтитры: английские (для слабослышащих)

Золотой глобус, 2001 год
Номинации (1):
Лучшая мужская роль (комедия или мюзикл) (Джон Кьюсак)

Премия канала «MTV», 2001 год
Номинации (3):
Мужской прорыв года (Джек Блэк)
Лучшая эпизодическая роль (Брюс Спрингстин)
Лучшая музыкальная сцена

Британская академия, 2001 год
Номинации (1):
Лучший адаптированный сценарий

Общее
Уникальный идентификатор : 245503344725301349077367640950012944444 (0xB8B2396C139BE2BE99ADE7E8349CA03C)
Полное имя : D:VideoФанатик.2000.BDRip.1080p.mkv
Формат : Matroska
Версия формата : Version 4 / Version 2
Размер файла : 14,9 Гбайт
Продолжительность : 1 ч. 53 м.
Общий поток : 18,8 Мбит/сек
Название фильма : BDRip -- STarankov
Дата кодирования : UTC 2015-06-07 06:01:48
Программа кодирования : mkvmerge v7.9.0 ('Birds') 64bit
Библиотека кодирования : libebml v1.3.1 + libmatroska v1.4.2
DURATION : 01:51:07.118000000
NUMBER_OF_FRAMES : 1930
NUMBER_OF_BYTES : 71262
_STATISTICS_WRITING_APP : mkvmerge v7.9.0 ('Birds') 64bit
_STATISTICS_WRITING_DATE_UTC : 2015-06-07 06:01:48
_STATISTICS_TAGS : BPS DURATION NUMBER_OF_FRAMES NUMBER_OF_BYTES

Видео
Идентификатор : 1
Формат : AVC
Формат/Информация : Advanced Video Codec
Профиль формата : High@L4.1
Параметр CABAC формата : Да
Параметр ReFrames формата : 4 кадра
Идентификатор кодека : V_MPEG4/ISO/AVC
Продолжительность : 1 ч. 53 м.
Битрейт : 13,5 Мбит/сек
Ширина : 1920 пикселей
Высота : 1040 пикселей
Соотношение сторон : 1,85:1
Режим частоты кадров : Постоянный
Частота кадров : 23,976 кадра/сек
Цветовое пространство : YUV
Субдискретизация насыщенности : 4:2:0
Битовая глубина : 8 бит
Тип развёртки : Прогрессивная
Бит/(Пиксели*Кадры) : 0.282
Размер потока : 10,7 Гбайт (72%)
Библиотека кодирования : x264 core 146 r2538 121396c
Настройки программы : cabac=1 / ref=4 / deblock=1:-1:-1 / analyse=0x3:0x113 / me=umh / subme=10 / psy=1 / psy_rd=1.00:0.15 / mixed_ref=1 / me_range=32 / chroma_me=1 / trellis=2 / 8x8dct=1 / cqm=0 / deadzone=21,11 / fast_pskip=1 / chroma_qp_offset=-3 / threads=6 / lookahead_threads=1 / sliced_threads=0 / nr=0 / decimate=1 / interlaced=0 / bluray_compat=0 / constrained_intra=0 / bframes=9 / b_pyramid=2 / b_adapt=2 / b_bias=0 / direct=1 / weightb=1 / open_gop=0 / weightp=2 / keyint=230 / keyint_min=23 / scenecut=40 / intra_refresh=0 / rc_lookahead=40 / rc=crf / mbtree=0 / crf=18.0 / qcomp=0.60 / qpmin=0 / qpmax=69 / qpstep=4 / vbv_maxrate=40000 / vbv_bufsize=50000 / crf_max=0.0 / nal_hrd=none / filler=0 / ip_ratio=1.40 / pb_ratio=1.30 / aq=1:1.00
Язык : English
Default : Да
Forced : Нет
DURATION : 01:53:40.272000000
NUMBER_OF_FRAMES : 163523
NUMBER_OF_BYTES : 11804923806
_STATISTICS_WRITING_APP : mkvmerge v7.9.0 ('Birds') 64bit
_STATISTICS_WRITING_DATE_UTC : 2015-06-07 06:01:48
_STATISTICS_TAGS : BPS DURATION NUMBER_OF_FRAMES NUMBER_OF_BYTES

Аудио #1
Идентификатор : 2
Формат : AC-3
Формат/Информация : Audio Coding 3
Расширение режима : CM (complete main)
Параметр Endianness формата : Big
Идентификатор кодека : A_AC3
Продолжительность : 1 ч. 53 м.
Вид битрейта : Постоянный
Битрейт : 192 Кбит/сек
Каналы : 2 канала
Расположение каналов : Front: L R
Частота : 48,0 КГц
Битовая глубина : 16 бит
Метод сжатия : С потерями
Размер потока : 156 Мбайт (1%)
Заголовок : MVO (5 канал)
Язык : Russian
Default : Да
Forced : Нет

Аудио #2
Идентификатор : 3
Формат : AC-3
Формат/Информация : Audio Coding 3
Расширение режима : CM (complete main)
Параметр Endianness формата : Big
Идентификатор кодека : A_AC3
Продолжительность : 1 ч. 53 м.
Вид битрейта : Постоянный
Битрейт : 192 Кбит/сек
Каналы : 2 канала
Расположение каналов : Front: L R
Частота : 48,0 КГц
Битовая глубина : 16 бит
Метод сжатия : С потерями
Размер потока : 156 Мбайт (1%)
Заголовок : DVO HTB+)
Язык : Russian
Default : Нет
Forced : Нет

Аудио #3
Идентификатор : 4
Формат : DTS
Формат/Информация : Digital Theater Systems
Режим : 16
Параметр Endianness формата : Big
Идентификатор кодека : A_DTS
Продолжительность : 1 ч. 53 м.
Вид битрейта : Постоянный
Битрейт : 1509 Кбит/сек
Каналы : 6 каналов
Расположение каналов : Front: L C R, Side: L R, LFE
Частота : 48,0 КГц
Битовая глубина : 24 бит
Метод сжатия : С потерями
Размер потока : 1,20 Гбайт (8%)
Заголовок : DVO (Видеосервис)
Язык : Russian
Default : Нет
Forced : Нет

Аудио #4
Идентификатор : 5
Формат : DTS
Формат/Информация : Digital Theater Systems
Режим : 16
Параметр Endianness формата : Big
Идентификатор кодека : A_DTS
Продолжительность : 1 ч. 53 м.
Вид битрейта : Постоянный
Битрейт : 1509 Кбит/сек
Каналы : 6 каналов
Расположение каналов : Front: L C R, Side: L R, LFE
Частота : 48,0 КГц
Битовая глубина : 24 бит
Метод сжатия : С потерями
Размер потока : 1,20 Гбайт (8%)
Заголовок : AVO (Евгений Гранкин)
Язык : Russian
Default : Нет
Forced : Нет

Аудио #5
Идентификатор : 6
Формат : DTS
Формат/Информация : Digital Theater Systems
Режим : 16
Параметр Endianness формата : Big
Идентификатор кодека : A_DTS
Продолжительность : 1 ч. 53 м.
Вид битрейта : Постоянный
Битрейт : 1509 Кбит/сек
Каналы : 6 каналов
Расположение каналов : Front: L C R, Side: L R, LFE
Частота : 48,0 КГц
Битовая глубина : 24 бит
Метод сжатия : С потерями
Размер потока : 1,20 Гбайт (8%)
Заголовок : Original
Язык : English
Default : Нет
Forced : Нет

Текст
Идентификатор : 7
Формат : UTF-8
Идентификатор кодека : S_TEXT/UTF8
Идентификатор кодека/Информация : UTF-8 Plain Text
Заголовок : английские (для слабослышащих)
Язык : English
Default : Нет
Forced : Нет





_________________
Проголосуй за трекер Открытый торрент трекер - RUS-MEDIA.ORG

Проголосуй Открытый торрент трекер - RUS-MEDIA.ORG


Вернуться к началу
 Профиль Отправить личное сообщение  
 
   Похожие торренты   Автор   Торрент   Размер 
В этой теме нет новых непрочитанных сообщений. Нервы на пределе / High Strung [драма, мелодрама, музыка, 2016] BDRip 720p, Mvo [iTunes]

salma3

303 | 157

5.35 ГБ

В этой теме нет новых непрочитанных сообщений. Авансцена / Center Stage [Драма, музыка, 2000] BDRip 1080p, Mvo+Sub

salma3

25 | 23

7.76 ГБ

В этой теме нет новых непрочитанных сообщений. Синг Стрит / Sing Street [драма, мелодрама, комедия, музыка, 2016] BDRip 1080p, Avo

salma3

5 | 21

11.33 ГБ

В этой теме нет новых непрочитанных сообщений. Братья Блюз 2000 / Blues Brothers 2000 [боевик, комедия, криминал, музыка, 1998] Blu-ray 1080p, Mvo+Sub

salma3

11 | 7

35.86 ГБ

В этой теме нет новых непрочитанных сообщений. Дуэты / Duets [Драма, комедия, музыка, 2000] BDRip 720p, Mvo+Avo

salma3

27 | 4

8.74 ГБ

В этой теме нет новых непрочитанных сообщений. Билли Эллиот / Billy Elliot [драма, комедия, музыка, 2000] BDRip 720p, Dub

salma3

29 | 10

5.29 ГБ

В этой теме нет новых непрочитанных сообщений. Бессмертные / Обветшалый / Tumbledown [Мелодрама, комедия, музыка, 2015] BDRip 1080p, Mvo

salma3

13 | 3

7.97 ГБ


Начать новую тему Ответить на тему  [ 1 сообщение ] 




Для Мосгорсуда, Роскомнадзора и рекламодателей:: mosgorsud-torrent[собачка]yandex.ru
cron