Торрент файл
скачать торрент магнет ссылка Добавлен: 07 июн 2015, 21:07
Размер: 4.31 ГБ
Сидеров: 82
Личеров: 2
Автор

СообщениеДобавлено: 07 июн 2015, 21:07 

Не в сети
Супермодератор
Аватара пользователя
Дата регистрации:
15 фев 2012, 16:44
Возраст: 28
Спасибо: 6918 / 2147
Сообщения: 52705
Год выпуска: 1967
Страна: США
Жанр: вестерн
Продолжительность: 01:50:38
Перевод: профессиональный многоголосый

Режиссёр: Мартин Ритт

В ролях: Пол Ньюман, Фредрик Марч, Ричард Бун, Дайан Чиленто, Кэмерон Митчелл, Барбара Раш, Питер Лазер, Маргарет Блай, Мартин Болсам, Скип Уорд, Фрэнк Сильвера, Дэвид Канари, Вэл Эйвери, Ларри Уорд

Описание: Когда Джон Рассел, белый американец, воспитанный в Аризоне индейским племенем, продаёт небольшую гостиницу, доставшуюся от отца, он вынужден вступить в конфликт с обществом, которое сам презирает. Джон покидает город в дилижансе, и настроенные против него пассажиры заставляют его ехать вместе с кучером. Но на обоз нападают разбойники, бросают пассажиров в пустыне, и Джон Рассел становится единственной надеждой этих людей на спасение и выживание...



Качество: BDRip 720p Сравнение с исходником
Формат: MKV
Видео: MPEG-4 AVC, 5084 Кбит/с, 1280x544, 23,976 кадра/с
Аудио 1: русский, AC3, 192 kbps, 2 ch, 48 kHz [профессиональный многоголосый, DVD Магия]
Аудио 2: английский, AC3, 192 kbps, 2 ch, 48 kHz [оригинал]
Субтитры: английские

Общее
Уникальный идентификатор : 237304168106612757613650207352670800097 (0xB2871ECDD846982B978BD72683DE48E1)
Полное имя : D:VideoОмбре.1967.BDRip.720p.mkv
Формат : Matroska
Версия формата : Version 4 / Version 2
Размер файла : 4,31 Гбайт
Продолжительность : 1 ч. 50 м.
Общий поток : 5579 Кбит/сек
Название фильма : BDRip -- STarankov
Дата кодирования : UTC 2015-06-04 09:03:34
Программа кодирования : mkvmerge v7.9.0 ('Birds') 64bit
Библиотека кодирования : libebml v1.3.1 + libmatroska v1.4.2
_STATISTICS_WRITING_APP : mkvmerge v7.9.0 ('Birds') 64bit
_STATISTICS_WRITING_DATE_UTC : 2015-06-04 09:03:34
_STATISTICS_TAGS : BPS DURATION NUMBER_OF_FRAMES NUMBER_OF_BYTES
DURATION : 01:46:47.233000000
NUMBER_OF_FRAMES : 1176
NUMBER_OF_BYTES : 43309

Видео
Идентификатор : 1
Формат : AVC
Формат/Информация : Advanced Video Codec
Профиль формата : High@L4.1
Параметр CABAC формата : Да
Параметр ReFrames формата : 9 кадров
Идентификатор кодека : V_MPEG4/ISO/AVC
Продолжительность : 1 ч. 50 м.
Битрейт : 5084 Кбит/сек
Ширина : 1280 пикселей
Высота : 544 пикселя
Соотношение сторон : 2,35:1
Режим частоты кадров : Постоянный
Частота кадров : 23,976 кадра/сек
Цветовое пространство : YUV
Субдискретизация насыщенности : 4:2:0
Битовая глубина : 8 бит
Тип развёртки : Прогрессивная
Бит/(Пиксели*Кадры) : 0.305
Размер потока : 3,93 Гбайт (91%)
Библиотека кодирования : x264 core 146 r2538 121396c
Настройки программы : cabac=1 / ref=9 / deblock=1:-1:-1 / analyse=0x3:0x113 / me=umh / subme=10 / psy=1 / psy_rd=1.00:0.15 / mixed_ref=1 / me_range=32 / chroma_me=1 / trellis=2 / 8x8dct=1 / cqm=0 / deadzone=21,11 / fast_pskip=1 / chroma_qp_offset=-3 / threads=6 / lookahead_threads=1 / sliced_threads=0 / nr=0 / decimate=1 / interlaced=0 / bluray_compat=0 / constrained_intra=0 / bframes=12 / b_pyramid=2 / b_adapt=2 / b_bias=0 / direct=1 / weightb=1 / open_gop=0 / weightp=2 / keyint=230 / keyint_min=23 / scenecut=40 / intra_refresh=0 / rc_lookahead=40 / rc=crf / mbtree=0 / crf=18.0 / qcomp=0.60 / qpmin=0 / qpmax=69 / qpstep=4 / vbv_maxrate=40000 / vbv_bufsize=50000 / crf_max=0.0 / nal_hrd=none / filler=0 / ip_ratio=1.40 / pb_ratio=1.30 / aq=1:1.00
Язык : English
Default : Да
Forced : Нет
DURATION : 01:50:38.924000000
NUMBER_OF_FRAMES : 159175
NUMBER_OF_BYTES : 4309633560
_STATISTICS_WRITING_APP : mkvmerge v7.9.0 ('Birds') 64bit
_STATISTICS_WRITING_DATE_UTC : 2015-06-04 09:03:34
_STATISTICS_TAGS : BPS DURATION NUMBER_OF_FRAMES NUMBER_OF_BYTES

Аудио #1
Идентификатор : 2
Формат : AC-3
Формат/Информация : Audio Coding 3
Расширение режима : CM (complete main)
Параметр Endianness формата : Big
Идентификатор кодека : A_AC3
Продолжительность : 1 ч. 50 м.
Вид битрейта : Постоянный
Битрейт : 192 Кбит/сек
Каналы : 2 канала
Расположение каналов : Front: L R
Частота : 48,0 КГц
Битовая глубина : 16 бит
Метод сжатия : С потерями
Размер потока : 152 Мбайт (3%)
Заголовок : MVO (DVD Магия)
Язык : Russian
Default : Да
Forced : Нет

Аудио #2
Идентификатор : 3
Формат : AC-3
Формат/Информация : Audio Coding 3
Расширение режима : CM (complete main)
Параметр Endianness формата : Big
Идентификатор кодека : A_AC3
Продолжительность : 1 ч. 50 м.
Вид битрейта : Постоянный
Битрейт : 192 Кбит/сек
Каналы : 2 канала
Расположение каналов : Front: L R
Частота : 48,0 КГц
Битовая глубина : 16 бит
Метод сжатия : С потерями
Размер потока : 152 Мбайт (3%)
Заголовок : Original
Язык : English
Default : Нет
Forced : Нет

Текст
Идентификатор : 4
Формат : UTF-8
Идентификатор кодека : S_TEXT/UTF8
Идентификатор кодека/Информация : UTF-8 Plain Text
Заголовок : английские
Язык : English
Default : Нет
Forced : Нет




_________________
Проголосуй за трекер Открытый торрент трекер - RUS-MEDIA.ORG

Проголосуй Открытый торрент трекер - RUS-MEDIA.ORG



реклама партнёра


Вернуться к началу
 Профиль Отправить личное сообщение  
 
   Похожие торренты   Автор   Торрент   Размер 
В этой теме нет новых непрочитанных сообщений. Река плохого человека / El hombre de Rio Malo [Комедия, вестерн, 1971] BDRip 720p, Avo

salma3

63 | 42

5.1 ГБ

В этой теме нет новых непрочитанных сообщений. Река плохого человека / El hombre de Río Malo [Комедия, вестерн, 1971] BDRip, Avo

salma3

148 | 45

1.37 ГБ

В этой теме нет новых непрочитанных сообщений. Путь на Запад / The Way West [приключения, вестерн, 1967] BDRip 720p, Mvo

salma3

31 | 41

7.59 ГБ

В этой теме нет новых непрочитанных сообщений. Наемник / Профессиональный стрелок / The Mercenary / A Professional Gun / Il mercenario [комедия, вестерн, 1968] BDRip, Mvo

salma3

93 | 13

1.45 ГБ

В этой теме нет новых непрочитанных сообщений. Смерть скачет на коне / Death Rides a Horse / Da uomo a uomo [Вестерн, 1967] BDRip 720p, Mvo

salma3

0 | 0

4.97 ГБ

В этой теме нет новых непрочитанных сообщений. Смерть скачет на коне / Death Rides a Horse / Da uomo a uomo [Вестерн, 1967] BDRip 720p, Mvo

salma3

0 | 0

4.97 ГБ

В этой теме нет новых непрочитанных сообщений. Человек с тысячью лиц / El hombre de las mil caras [Триллер, биография, 2016] BDRip 720p, Mvo

salma3

346 | 47

4.96 ГБ


Начать новую тему Ответить на тему  [ 1 сообщение ] 




Для Мосгорсуда, Роскомнадзора и рекламодателей:: mosgorsud-torrent[собачка]yandex.ru
cron