Торрент файл
скачать торрент магнет ссылка Добавлен: 05 июн 2015, 11:54
Размер: 4.62 ГБ
Сидеров: 234
Личеров: 13
Автор

СообщениеДобавлено: 05 июн 2015, 11:54 

Не в сети
Зам. Админа
Аватара пользователя
Дата регистрации:
02 дек 2010, 12:39
Спасибо: 12620 / 214
Сообщения: 28049
Год выхода: 2014
Жанр: комедия
Режиссер: Скот Армстронг
В ролях: ТиДжей Миллер, Адам Палли, Томас Миддлдитч, Элисон Бри, Шеннон Мари, Вудворд Кристен, Риттер Лэнс, Реддик Роза Салазар, Джон Глейсер, Джейсон Манцукас

О фильме: Для чего нужен мальчишник? Чтобы отметить последний день свободной жизни? Разделить сомнения с приятелем, который потом на церемонии вякнет, что он против этой свадьбы? Чтобы твоя оскорбленная невеста уехала одна в оплаченное свадебное путешествие в Мексику? Чтобы ты гнался за ней голый по прериям в грузовике с кокаином, отбиваясь от драгбаронов и койотов?



Выпущено: США / Gold Circle Films, RGB Media
Продолжительность: 01:29:25
Озвучивание: Дублированное [iTunes]

Формат: MKV
Качество: BDRip 720p
Видео: 5215 kb/s, 1280x536
Аудио: Russian: AC3, 384 kb/s (6 ch) /Enlglish:DTS, 1510 kb/s (6 ch)
Субтитры: English
Размер: 4.62 GB
Скачать: Сэмпл


Формат : Matroska
Версия формата : Version 2
Размер файла : 4,62 Гбайт
Продолжительность : 1 ч. 33 м.
Общий поток : 7111 Кбит/сек
Дата кодирования : UTC 2015-06-04 22:18:34
Программа кодирования : mkvmerge v7.6.0 ('Garden of Dreams') 32bit built on Feb 11 2015 00:18:47
Библиотека кодирования : libebml v1.3.1 + libmatroska v1.4.2

Видео
Идентификатор : 1
Формат : AVC
Формат/Информация : Advanced Video Codec
Профиль формата : High@L4.1
Параметр CABAC формата : Да
Параметр ReFrames формата : 9 кадров
Идентификатор кодека : V_MPEG4/ISO/AVC
Продолжительность : 1 ч. 33 м.
Битрейт : 5215 Кбит/сек
Ширина : 1280 пикселей
Высота : 536 пикселей
Соотношение сторон : 2,40:1
Режим частоты кадров : Постоянный
Частота кадров : 23,976 кадра/сек
Цветовое пространство : YUV
Субдискретизация насыщенности : 4:2:0
Битовая глубина : 8 бит
Тип развёртки : Прогрессивная
Бит/(Пиксели*Кадры) : 0.317
Размер потока : 3,30 Гбайт (71%)
Библиотека кодирования : x264 core 146 r2538 121396c
Настройки программы : cabac=1 / ref=9 / deblock=1:-3:-3 / analyse=0x3:0x113 / me=umh / subme=10 / psy=1 / psy_rd=1.05:0.00 / mixed_ref=1 / me_range=36 / chroma_me=1 / trellis=2 / 8x8dct=1 / cqm=0 / deadzone=6,6 / fast_pskip=0 / chroma_qp_offset=-2 / threads=12 / lookahead_threads=2 / sliced_threads=0 / nr=0 / decimate=0 / interlaced=0 / bluray_compat=0 / constrained_intra=0 / bframes=9 / b_pyramid=2 / b_adapt=2 / b_bias=0 / direct=3 / weightb=1 / open_gop=0 / weightp=2 / keyint=250 / keyint_min=23 / scenecut=40 / intra_refresh=0 / rc=2pass / mbtree=0 / bitrate=5215 / ratetol=1.0 / qcomp=0.80 / qpmin=0 / qpmax=69 / qpstep=4 / cplxblur=20.0 / qblur=0.5 / ip_ratio=1.10 / pb_ratio=1.10 / aq=1:0.70
Язык : English
Default : Да
Forced : Нет

Аудио #1
Идентификатор : 2
Формат : AC-3
Формат/Информация : Audio Coding 3
Расширение режима : CM (complete main)
Параметр Endianness формата : Big
Идентификатор кодека : A_AC3
Продолжительность : 1 ч. 33 м.
Вид битрейта : Постоянный
Битрейт : 384 Кбит/сек
Каналы : 6 каналов
Расположение каналов : Front: L C R, Side: L R, LFE
Частота : 48,0 КГц
Битовая глубина : 16 бит
Метод сжатия : С потерями
Размер потока : 256 Мбайт (5%)
Заголовок : Дублированное- iTunes
Язык : Russian
Default : Да
Forced : Нет

Аудио #2
Идентификатор : 3
Формат : DTS
Формат/Информация : Digital Theater Systems
Режим : 16
Параметр Endianness формата : Big
Идентификатор кодека : A_DTS
Продолжительность : 1 ч. 33 м.
Вид битрейта : Постоянный
Битрейт : 1509 Кбит/сек
Каналы : 6 каналов
Расположение каналов : Front: L C R, Side: L R, LFE
Частота : 48,0 КГц
Битовая глубина : 24 бит
Метод сжатия : С потерями
Размер потока : 1005 Мбайт (21%)
Заголовок : DTS 5.1
Язык : English
Default : Нет
Forced : Нет

Текст #1
Идентификатор : 4
Формат : UTF-8
Идентификатор кодека : S_TEXT/UTF8
Идентификатор кодека/Информация : UTF-8 Plain Text
Заголовок : English
Язык : English
Default : Нет
Forced : Нет

Текст #2
Идентификатор : 5
Формат : UTF-8
Идентификатор кодека : S_TEXT/UTF8
Идентификатор кодека/Информация : UTF-8 Plain Text
Заголовок : English (SDH)
Язык : English
Default : Нет
Forced : Нет

Меню
00:00:00.000 : en:00:00:00.000
00:05:05.972 : en:00:05:05.972
00:10:59.534 : en:00:10:59.534
00:14:05.136 : en:00:14:05.136
00:20:46.912 : en:00:20:46.912
00:25:41.540 : en:00:25:41.540
00:31:21.505 : en:00:31:21.505
00:35:12.819 : en:00:35:12.819
00:39:44.757 : en:00:39:44.757
00:45:32.855 : en:00:45:32.855
00:48:16.602 : en:00:48:16.602
00:51:47.313 : en:00:51:47.313
00:55:44.550 : en:00:55:44.550
01:01:24.890 : en:01:01:24.890
01:06:22.687 : en:01:06:22.687
01:09:31.959 : en:01:09:31.959
01:12:27.260 : en:01:12:27.260
01:16:00.347 : en:01:16:00.347
01:19:14.416 : en:01:19:14.416
01:21:32.513 : en:01:21:32.513







реклама партнёра


Вернуться к началу
 Профиль  
 
   Похожие торренты   Автор   Торрент   Размер 
В этой теме нет новых непрочитанных сообщений. Голые перцы / Search Party (Скот Армстронг) [комедия, 2014] WEB-DLRip 720p, Dub [iTunes]

Dracon

5 | 3

2.78 ГБ

В этой теме нет новых непрочитанных сообщений. Голые перцы / Search Party (Скот Армстронг) [комедия, 2014] BDRip 1080p, Dub [iTunes]

Dracon

227 | 17

7.9 ГБ

В этой теме нет новых непрочитанных сообщений. Голые перцы / Search Party (Скот Армстронг) [комедия, 2014] HDRip, Dub [iTunes]

Dracon

5 | 1

1.46 ГБ

В этой теме нет новых непрочитанных сообщений. Голые перцы / Search Party (Скот Армстронг) [комедия, 2014] WEB-DLRip, Dub [iTunes]

Dracon

11 | 3

1.37 ГБ

В этой теме нет новых непрочитанных сообщений. Голые перцы / Search Party (Скот Армстронг) [комедия, 2014] WEB-DLRip 1080p, Dub [iTunes]

Dracon

30 | 5

3.02 ГБ

В этой теме нет новых непрочитанных сообщений. Голые перцы / Search Party (Скот Армстронг) [комедия, 2014] WEB-DLRip, dub [Чистый звук]

Dracon

10 | 3

1.37 ГБ

В этой теме нет новых непрочитанных сообщений. Голые перцы / Search Party (Скот Армстронг) [комедия, 2014] WEB-DLRip, dub [Чистый звук]

Dracon

3 | 4

699.89 МБ


Начать новую тему Ответить на тему  [ 1 сообщение ] 




Для Мосгорсуда, Роскомнадзора и рекламодателей:: mosgorsud-torrent[собачка]yandex.ru