Торрент файл
скачать торрент магнет ссылка Добавлен: 05 июн 2015, 10:56
Размер: 7.01 ГБ
Сидеров: 17
Личеров: 1
Автор

СообщениеДобавлено: 05 июн 2015, 10:56 

Не в сети
Супермодератор
Аватара пользователя
Дата регистрации:
15 фев 2012, 16:44
Возраст: 28
Спасибо: 6643 / 2146
Сообщения: 45801
Год выхода: 1970
Жанр: драма, приключения, вестерн, военный, история
Режиссер: Артур Пенн
В ролях: Дастин Хоффман (Jack Crabb), Фэй Данауэй (Mrs. Louise Pendrake), Вождь Дэн Джордж (Old Lodge Skins), Мартин Болсам (Mr. Merriweather), Ричард Маллиган (Gen. George Armstrong Custer), Джефф Кори (Wild Bill Hickok), Эме Экклес (Sunshine), Келли Джин Питерс (Olga Crabb), Кэрол Андроски (Caroline Crabb), Роберт Литтл Стар (Little Horse), Кэл Беллини (Younger Bear), Рубен Морено (Shadow That Comes In Sight)

Эпическая история Дикого Запада будет поведана главным героем - стодвадцатилетним стариком в виртуозном исполнении Хоффмана, которому удалось выжить в чудовищной мясорубке, устроенной генералом Кастером. Он расскажет о том, как был усыновлeн индейцами и как стал другом знаменитого стрелка «Дикого Билла» Хикока.



Страна: США
Продолжительность: 02:19:24 ч.
Перевод: Профессиональный (многоголосый, закадровый) R5
Авторский одноголосый (Михалев Алексей)
Оригинал (Английский)

Файл
Кодек: h264
Качество: BDRip 1080p.
Видео: 6175 Кбит/сек.; 1920x808 пикс.; Соотношение сторон: 2,35:1; Частота кадров: 23,976 кадра/сек.
Звук: 1: 384 кбит/сек., 48.0 кГц., 6 канал.
2: 192 кбит/сек., 48.0 кГц., Стерео.
3: 448 кбит/сек., 48.0 кГц., 6 канал.
Субтитры: Русские, Английские

Общее
Уникальный идентификатор : 83455500050554890489036295591436635928 (0x3EC8F1D50C8139F583B2A6575AC24F18)
Полное имя : D:Торрент файлыLITTLE BIG MAN.1970.BDRip.1080p..mkv
Формат : Matroska
Версия формата : Version 2
Размер файла : 7,02 Гбайт
Продолжительность : 2 ч. 19 м.
Общий поток : 7205 Кбит/сек
Программа кодирования : XviD4PSP 6.0 / 53.6.0
Библиотека кодирования : XviD4PSP 6.0 / 53.6.0

Видео
Идентификатор : 1
Формат : AVC
Формат/Информация : Advanced Video Codec
Профиль формата : High@L4.1
Параметр CABAC формата : Да
Параметр ReFrames формата : 4 кадра
Идентификатор кодека : V_MPEG4/ISO/AVC
Продолжительность : 2 ч. 19 м.
Битрейт : 6175 Кбит/сек
Ширина : 1920 пикселей
Высота : 808 пикселей
Соотношение сторон : 2,35:1
Режим частоты кадров : Постоянный
Частота кадров : 23,976 кадра/сек
Цветовое пространство : YUV
Субдискретизация насыщенности : 4:2:0
Битовая глубина : 8 бит
Тип развёртки : Прогрессивная
Бит/(Пиксели*Кадры) : 0.166
Размер потока : 5,88 Гбайт (84%)
Библиотека кодирования : x264 core 116 r2019M 9cc407d
Настройки программы : cabac=1 / ref=5 / deblock=1:0:0 / analyse=0x3:0x133 / me=tesa / subme=10 / psy=1 / psy_rd=1.00:0.20 / mixed_ref=1 / me_range=24 / chroma_me=1 / trellis=2 / 8x8dct=1 / cqm=0 / deadzone=21,11 / fast_pskip=1 / chroma_qp_offset=-3 / threads=10 / sliced_threads=0 / nr=20 / decimate=1 / interlaced=0 / bluray_compat=0 / constrained_intra=0 / bframes=5 / b_pyramid=1 / b_adapt=2 / b_bias=0 / direct=3 / weightb=1 / open_gop=0 / weightp=2 / keyint=230 / keyint_min=23 / scenecut=40 / intra_refresh=0 / rc_lookahead=40 / rc=2pass / mbtree=1 / bitrate=6175 / ratetol=1.0 / qcomp=0.60 / qpmin=10 / qpmax=51 / qpstep=4 / cplxblur=20.0 / qblur=0.5 / ip_ratio=1.40 / aq=1:1.00
Default : Да
Forced : Нет

Аудио #1
Идентификатор : 2
Формат : AC-3
Формат/Информация : Audio Coding 3
Расширение режима : CM (complete main)
Параметр Endianness формата : Big
Идентификатор кодека : A_AC3
Продолжительность : 2 ч. 19 м.
Вид битрейта : Постоянный
Битрейт : 384 Кбит/сек
Каналы : 6 каналов
Расположение каналов : Front: L C R, Side: L R, LFE
Частота : 48,0 КГц
Битовая глубина : 16 бит
Метод сжатия : С потерями
Размер потока : 383 Мбайт (5%)
Язык : Russian
Default : Да
Forced : Нет

Аудио #2
Идентификатор : 3
Формат : AC-3
Формат/Информация : Audio Coding 3
Расширение режима : CM (complete main)
Параметр Endianness формата : Big
Идентификатор кодека : A_AC3
Продолжительность : 2 ч. 19 м.
Вид битрейта : Постоянный
Битрейт : 192 Кбит/сек
Каналы : 2 канала
Расположение каналов : Front: L R
Частота : 48,0 КГц
Битовая глубина : 16 бит
Метод сжатия : С потерями
Размер потока : 191 Мбайт (3%)
Язык : Russian
Default : Да
Forced : Нет

Аудио #3
Идентификатор : 4
Формат : AC-3
Формат/Информация : Audio Coding 3
Расширение режима : CM (complete main)
Параметр Endianness формата : Big
Идентификатор кодека : A_AC3
Продолжительность : 2 ч. 19 м.
Вид битрейта : Постоянный
Битрейт : 448 Кбит/сек
Каналы : 6 каналов
Расположение каналов : Front: L C R, Side: L R, LFE
Частота : 48,0 КГц
Битовая глубина : 16 бит
Метод сжатия : С потерями
Размер потока : 447 Мбайт (6%)
Язык : English
Default : Да
Forced : Нет

Текст #1
Идентификатор : 5
Формат : UTF-8
Идентификатор кодека : S_TEXT/UTF8
Идентификатор кодека/Информация : UTF-8 Plain Text
Язык : Russian
Default : Да
Forced : Нет

Текст #2
Идентификатор : 6
Формат : UTF-8
Идентификатор кодека : S_TEXT/UTF8
Идентификатор кодека/Информация : UTF-8 Plain Text
Язык : English
Default : Нет
Forced : Нет




_________________
Проголосуй за трекер Открытый торрент трекер - RUS-MEDIA.ORG

Проголосуй Открытый торрент трекер - RUS-MEDIA.ORG



реклама партнёра


Вернуться к началу
 Профиль Отправить личное сообщение  
 
   Похожие торренты   Автор   Торрент   Размер 
В этой теме нет новых непрочитанных сообщений. Кромвель / Cromwell [драма, военный, биография, история, 1970] BDRip 1080p, Dvo

salma3

38 | 12

8.61 ГБ

В этой теме нет новых непрочитанных сообщений. Смертельная ошибка / Tödlicher Irrtum [Приключения, вестерн, 1970] BDRip 1080p, Dub

salma3

72 | 29

5.64 ГБ

В этой теме нет новых непрочитанных сообщений. Кромвель / Cromwell [драма, военный, биография, история, 1970] BDRip, Dvo [НТВ+]

salma3

108 | 39

1.46 ГБ

В этой теме нет новых непрочитанных сообщений. Кромвель / Cromwell [драма, военный, биография, история, 1970] BDRip 720p, Dvo [НТВ+]

salma3

97 | 12

3.72 ГБ

В этой теме нет новых непрочитанных сообщений. Сто винтовок / 100 Rifles [приключения, вестерн, военный, 1969] BDRip 1080p, Mvo

salma3

9 | 3

14.04 ГБ

В этой теме нет новых непрочитанных сообщений. Прощай, Сабата / Indio Black, sai che ti dico: Sei un gran figlio di... [боевик, вестерн, военный, 1970] BDRip, Dvo [НТВ+]

salma3

28 | 5

1.45 ГБ

В этой теме нет новых непрочитанных сообщений. Человек диких прерий / Man in the Wilderness [драма, приключения, вестерн, 1971] BDRip, Avo

salma3

130 | 21

1.45 ГБ


Начать новую тему Ответить на тему  [ 1 сообщение ] 




Для Мосгорсуда, Роскомнадзора и рекламодателей:: mosgorsud-torrent[собачка]yandex.ru