Торрент файл
скачать торрент магнет ссылка Добавлен: 26 май 2015, 02:15
Размер: 4.15 ГБ
Сидеров: 182
Личеров: 5
Автор

СообщениеДобавлено: 26 май 2015, 02:15 

Не в сети
Супермодератор
Аватара пользователя
Дата регистрации:
06 июн 2014, 07:51
Спасибо: 632 / 0
Сообщения: 1997

Информация о фильме
Название: Десятидюймовый герой
Оригинальное название: Ten Inch Hero
Год выхода: 2007
Жанр: драма, мелодрама, комедия
Режиссер: Дэвид Маккэй /David Mackay/
В ролях: Элизабет Арнуа /Elisabeth Harnois/, Клеа ДюВалл /Clea DuVall/, Шон Патрик Флэнери /Sean Patrick Flanery/, Дженсен Эклс /Jensen Ackles/, Дэннил Эклс /Danneel Ackles/, Элис Крайдж /Alice Krige/, Джон До /John Doe/, Шон Уинг /Sean Wing/, Адаир Тишлер /Adair Tishler/, Джордан Бэлфи /Jordan Belfi/

О фильме:
Герои фильма, молодые люди, работают в прибрежной закусочной серфингиста Тракера, любителя стиля 1960-х. Художница Пайпер разыскивает ребенка, которого когда-то отдала на усыновление. Застенчивая и робкая Джен погружена в роман, проходящий заочно, через интернет. А сексуально ненасытная Тиш, не пропускающая мимо красавцев, ищет истинную любовь. И, наконец, Пристли — бойкий парень с панковским ирокезом на голове — держит в себе чувства и серьезные мысли, укрывшись за маской хохмача.



Страна: США
Студия: Battle Ground
Продолжительность: 01:42:05
Перевод:
Профессиональный (многоголосый, закадровый) - LostFilm - студия "Kravec" /версия 2015 года/
Профессиональный (многоголосый, закадровый) - LostFilm - студия "Kravec" /версия 2010 года/
Профессиональный (многоголосый, закадровый) - NovaFilm - студия "Novamedia"

Файл
Кодек: H.264
Качество: WEB-DL 720p
Видео: 1280x720 at 23.976 fps, MPEG-4 AVC, ~4158 kbps avg
Аудио#1: Russian: 48 kHz, AC3, 3/2 (L,C,R,l,r) + LFE ch, ~384 kbps |Многоголосый закадровый, LostFilm /2015/|
Аудио#2: Russian: 48 kHz, AC3, 3/2 (L,C,R,l,r) + LFE ch, ~384 kbps |Многоголосый закадровый, LostFilm /2010/|
Аудио#3: Russian: 48 kHz, AC3, 2/0 (L,R) ch, ~192.00 kbps avg |Многоголосый закадровый, NovaFilm|
Аудио#4: English: 48 kHz, AC3, 3/2 (L,C,R,l,r) + LFE ch, ~384 kbps |Оригинал|
Аудио#8: English: 48 kHz, AC3, 2/0 (L,R) ch, ~192.00 kbps avg |Комментарии, Дэвид Маккэй и Марк Уитскен|
Субтитры: Russian (Forced - надписи и песни, 3 x Full - Fargate, sheep и Алисса, Amarillis), English (Full)

General
Complete name : Ten.Inch.Hero.2007.720p.WEB-DL.3xRus.Eng.mkv
Format : Matroska
Format version : Version 4 / Version 2
File size : 4.15 GiB
Duration : 1h 42mn
Overall bit rate : 5 810 Kbps
Movie name : Ten Inch Hero (2007)
Encoded date : UTC 2015-05-21 18:02:16
Writing application : mkvmerge v7.9.0 ('Birds') 64bit
Writing library : libebml v1.3.1 + libmatroska v1.4.2
Video
ID : 1
Format : AVC
Format/Info : Advanced Video Codec
Format profile : High@L3.1
Format settings, CABAC : No
Format settings, ReFrames : 2 frames
Codec ID : V_MPEG4/ISO/AVC
Duration : 1h 42mn
Bit rate : 4 158 Kbps
Width : 1 280 pixels
Height : 720 pixels
Display aspect ratio : 16:9
Frame rate mode : Constant
Frame rate : 23.976 fps
Color space : YUV
Chroma subsampling : 4:2:0
Bit depth : 8 bits
Scan type : Progressive
Bits/(Pixel*Frame) : 0.188
Stream size : 2.97 GiB (72%)
Title : Ten Inch Hero (2007)
Language : English
Default : Yes
Forced : No
Color primaries : BT.709
Transfer characteristics : BT.709
Matrix coefficients : BT.709
Color range : Limited
Audio #1
ID : 2
Format : AC-3
Format/Info : Audio Coding 3
Mode extension : CM (complete main)
Format settings, Endianness : Big
Codec ID : A_AC3
Duration : 1h 42mn
Bit rate mode : Constant
Bit rate : 384 Kbps
Channel(s) : 6 channels
Channel positions : Front: L C R, Side: L R, LFE
Sampling rate : 48.0 KHz
Bit depth : 16 bits
Compression mode : Lossy
Stream size : 281 MiB (7%)
Title : AC3 5.1 ch @ 384 kbps - MVO (LostFilm - студия "Kravec", 2015)
Language : Russian
Default : Yes
Forced : No
Audio #2
ID : 3
Format : AC-3
Format/Info : Audio Coding 3
Mode extension : CM (complete main)
Format settings, Endianness : Big
Codec ID : A_AC3
Duration : 1h 42mn
Bit rate mode : Constant
Bit rate : 384 Kbps
Channel(s) : 6 channels
Channel positions : Front: L C R, Side: L R, LFE
Sampling rate : 48.0 KHz
Bit depth : 16 bits
Compression mode : Lossy
Stream size : 281 MiB (7%)
Title : AC3 5.1 ch @ 384 kbps - MVO (LostFilm - студия "Kravec", 2010)
Language : Russian
Default : No
Forced : No
Audio #3
ID : 4
Format : AC-3
Format/Info : Audio Coding 3
Mode extension : CM (complete main)
Format settings, Endianness : Big
Codec ID : A_AC3
Duration : 1h 42mn
Bit rate mode : Constant
Bit rate : 192 Kbps
Channel(s) : 2 channels
Channel positions : Front: L R
Sampling rate : 48.0 KHz
Bit depth : 16 bits
Compression mode : Lossy
Stream size : 140 MiB (3%)
Title : AC3 2.0 ch @ 192 kbps - MVO (NovaFilm - студия "Novamedia")
Language : Russian
Default : No
Forced : No
Audio #4
ID : 5
Format : AC-3
Format/Info : Audio Coding 3
Mode extension : CM (complete main)
Format settings, Endianness : Big
Codec ID : A_AC3
Duration : 1h 42mn
Bit rate mode : Constant
Bit rate : 384 Kbps
Channel(s) : 6 channels
Channel positions : Front: L C R, Side: L R, LFE
Sampling rate : 48.0 KHz
Bit depth : 16 bits
Compression mode : Lossy
Stream size : 281 MiB (7%)
Title : AC3 5.1 ch @ 384 kbps
Language : English
Default : No
Forced : No
Audio #5
ID : 6
Format : AC-3
Format/Info : Audio Coding 3
Mode extension : CM (complete main)
Format settings, Endianness : Big
Codec ID : A_AC3
Duration : 1h 42mn
Bit rate mode : Constant
Bit rate : 192 Kbps
Channel(s) : 2 channels
Channel positions : Front: L R
Sampling rate : 48.0 KHz
Bit depth : 16 bits
Compression mode : Lossy
Stream size : 140 MiB (3%)
Title : AC3 2.0 ch @ 192 kbps - Commentary by David Mackay and Mark Witsken
Language : English
Default : No
Forced : No
Text #1
ID : 7
Format : UTF-8
Codec ID : S_TEXT/UTF8
Codec ID/Info : UTF-8 Plain Text
Title : Forced - надписи и песни
Language : Russian
Default : Yes
Forced : No
Text #2
ID : 8
Format : UTF-8
Codec ID : S_TEXT/UTF8
Codec ID/Info : UTF-8 Plain Text
Title : Full - FarGate
Language : Russian
Default : No
Forced : No
Text #3
ID : 9
Format : UTF-8
Codec ID : S_TEXT/UTF8
Codec ID/Info : UTF-8 Plain Text
Title : Full - sheep и Алисса
Language : Russian
Default : No
Forced : No
Text #4
ID : 10
Format : UTF-8
Codec ID : S_TEXT/UTF8
Codec ID/Info : UTF-8 Plain Text
Title : Full - Amarillis
Language : Russian
Default : No
Forced : No
Text #5
ID : 11
Format : UTF-8
Codec ID : S_TEXT/UTF8
Codec ID/Info : UTF-8 Plain Text
Title : Full
Language : English
Default : No
Forced : No
Menu
00:00:00.000 : en:Chapter 1
00:10:00.000 : en:Chapter 2
00:20:00.000 : en:Chapter 3
00:30:00.000 : en:Chapter 4
00:40:00.000 : en:Chapter 5
00:50:00.000 : en:Chapter 6
01:00:00.000 : en:Chapter 7
01:10:00.000 : en:Chapter 8
01:20:00.000 : en:Chapter 9
01:30:00.000 : en:Chapter 10
ЦитатаКто-то писал:
[*] Сохранены оригинальные главы.



Вернуться к началу
 Профиль Отправить личное сообщение  
 
   Похожие торренты   Автор   Торрент   Размер 
В этой теме нет новых непрочитанных сообщений. Десятидюймовый герой / Ten Inch Hero [драма, мелодрама, комедия, 2007] WEB-DLRip, Mvo

salma3

41 | 10

1.45 ГБ

В этой теме нет новых непрочитанных сообщений. Герой ее романа / Paperback Hero [мелодрама, комедия, 1999] BDRip 720p, Dvo

salma3

0 | 1

4.12 ГБ

В этой теме нет новых непрочитанных сообщений. Герой / Hero [Боевик, драма, мелодрама, 2015] WEB-DLRip 720p, Dvo+Sub

salma3

992 | 205

2.19 ГБ

В этой теме нет новых непрочитанных сообщений. Герой / Hero [драма, мелодрама, комедия, 1992] WEB-DL 1080p, Dvo

salma3

72 | 19

4.96 ГБ

В этой теме нет новых непрочитанных сообщений. Герой / The Hero [драма, комедия, 2017] BDRip 720p, Mvo

salma3

62 | 34

2.85 ГБ

В этой теме нет новых непрочитанных сообщений. Аппетит к любви / Appetite for Love (Дэвид Маккэй / David Mackay) [2016г., мелодрама, комедия, HDTV 720p] MVO

Alfredovich

0 | 0

2.55 ГБ

В этой теме нет новых непрочитанных сообщений. Герой ее романа / Paperback Hero [мелодрама, комедия, 1999] DVDRip, Dvo

salma3

98 | 18

1.36 ГБ


Начать новую тему Ответить на тему  [ 1 сообщение ] 




Для Мосгорсуда, Роскомнадзора и рекламодателей:: mosgorsud-torrent[собачка]yandex.ru
cron