Торрент файл
скачать торрент магнет ссылка Добавлен: 24 май 2015, 15:00
Размер: 8.61 ГБ
Сидеров: 14
Личеров: 3
Автор

СообщениеДобавлено: 24 май 2015, 15:00 

Не в сети
Супермодератор
Аватара пользователя
Дата регистрации:
15 фев 2012, 16:44
Возраст: 28
Спасибо: 6928 / 2147
Сообщения: 52986
Год выхода: 1999
Жанр: Драма, мелодрама
Режиссер: Лассе Халльстрём

В ролях: Тоби Магуайр, Майкл Кейн, Шарлиз Терон, Пол Радд, Делрой Линдо, Эрика Баду, Хеви Ди, Киран Калкин, Джейн Александер, Кэти Бейкер, Кейт Неллиган, Пас де ла Уэрта, Дж. К. Симмонс, Эван Парке, Джимми Флинн, Эрик Пер Салливан, Скай Маккоул Бартусяк

О фильме:
40-е годы. Где-то далеко идет война, а в сиротском приюте Сент-Клауд, возглавляемом доктором Ларчем, решаются другие человеческие проблемы. Гомер Уэллс вырос в приюте и никогда еще не покидал его пределов. Зато преуспел в акушерстве, ассистируя доктору Ларчу.

Именно здесь Гомер знакомится с Кэнди и ее возлюбленным, уезжающим на фронт. С ними он впервые покидает Сент-Клауд, чтобы узнать другую жизнь, о которой пока только мечтал…



Страна: США
Продолжительность: 02:05:17
Перевод: Дубляж (Мосфильм-Мастер)

Файл
Кодек: AVC
Качество: BD 720p
Исходник: US AVC 29987 kbps
Видео: 1280x546 7430 kbps 23.976 fps 0.443 bit/pixel
Звук:
1. English DTS 5.0 48 kHz 1509 kbps 24-bit Оригинал
2. Russian AC3 5.1 48 kHz 448 kbps 16-bit Дубляж
3. English AC3 2.0 48 kHz 256 kbps 16-bit Комментарии создателей
Субтитры: (PGS) Русские, Английские



x264 [info]: frame I:1277 Avg QP:15.16 size:137267
x264 [info]: frame P:32031 Avg QP:16.82 size: 66925
x264 [info]: frame B:146933 Avg QP:18.69 size: 32750

General
Unique ID : 207863054948924033192834006930451346992 (0x9C60F7DB0632A1EABC43A96D67643630)
Format : Matroska
Format version : Version 4 / Version 2
File size : 8.61 GiB
Duration : 2h 5mn
Overall bit rate : 9 839 Kbps
Movie name : The Cider House Rules (1999)
Encoded date : UTC 2015-05-24 09:27:47
Writing application : mkvmerge v7.9.0 ('Birds') 64bit
Writing library : libebml v1.3.1 + libmatroska v1.4.2
Attachements : log.txt / cover.jpg
Source : US AVC 29987 kbps

Video
ID : 1
Format : AVC
Format/Info : Advanced Video Codec
Format profile : High@L4.1
Format settings, CABAC : Yes
Format settings, ReFrames : 11 frames
Codec ID : V_MPEG4/ISO/AVC
Duration : 2h 5mn
Bit rate : 7 430 Kbps
Width : 1 280 pixels
Height : 546 pixels
Display aspect ratio : 2.35:1
Frame rate mode : Constant
Frame rate : 23.976 fps
Color space : YUV
Chroma subsampling : 4:2:0
Bit depth : 8 bits
Scan type : Progressive
Bits/(Pixel*Frame) : 0.443
Stream size : 6.50 GiB (76%)
Title : The Cider House Rules (1999)
Writing library : x264 core 146 r2538 121396c
Encoding settings : cabac=1 / ref=11 / deblock=1:-3:-3 / analyse=0x3:0x133 / me=umh / subme=10 / psy=1 / psy_rd=1.00:0.00 / mixed_ref=1 / me_range=24 / chroma_me=1 / trellis=2 / 8x8dct=1 / cqm=0 / deadzone=21,11 / fast_pskip=1 / chroma_qp_offset=-2 / threads=3 / lookahead_threads=1 / sliced_threads=0 / nr=0 / decimate=1 / interlaced=0 / bluray_compat=0 / constrained_intra=0 / bframes=11 / b_pyramid=2 / b_adapt=2 / b_bias=0 / direct=1 / weightb=1 / open_gop=0 / weightp=2 / keyint=240 / keyint_min=23 / scenecut=40 / intra_refresh=0 / rc_lookahead=60 / rc=crf / mbtree=0 / crf=16.0 / qcomp=0.60 / qpmin=0 / qpmax=69 / qpstep=4 / vbv_maxrate=50000 / vbv_bufsize=62500 / crf_max=0.0 / nal_hrd=none / filler=0 / ip_ratio=1.40 / pb_ratio=1.30 / aq=2:1.00 / zones=174198,180240,q=26
Language : English
Default : Yes
Forced : No

Audio #1
ID : 2
Format : DTS
Format/Info : Digital Theater Systems
Mode : 16
Format settings, Endianness : Big
Codec ID : A_DTS
Duration : 2h 5mn
Bit rate mode : Constant
Bit rate : 1 509 Kbps
Channel(s) : 5 channels
Channel positions : Front: L C R, Side: L R
Sampling rate : 48.0 KHz
Bit depth : 24 bits
Compression mode : Lossy
Stream size : 1.32 GiB (15%)
Title : Оригинал (BD US)
Language : English
Default : No
Forced : No

Audio #2
ID : 3
Format : AC-3
Format/Info : Audio Coding 3
Mode extension : CM (complete main)
Format settings, Endianness : Big
Codec ID : A_AC3
Duration : 2h 5mn
Bit rate mode : Constant
Bit rate : 448 Kbps
Channel(s) : 6 channels
Channel positions : Front: L C R, Side: L R, LFE
Sampling rate : 48.0 KHz
Bit depth : 16 bits
Compression mode : Lossy
Stream size : 401 MiB (5%)
Title : Мосфильм-Мастер (BD RUS)
Language : Russian
Default : No
Forced : No

Audio #3
ID : 4
Format : AC-3
Format/Info : Audio Coding 3
Mode extension : CM (complete main)
Format settings, Endianness : Big
Codec ID : A_AC3
Duration : 2h 5mn
Bit rate mode : Constant
Bit rate : 256 Kbps
Channel(s) : 2 channels
Channel positions : Front: L R
Sampling rate : 48.0 KHz
Bit depth : 16 bits
Compression mode : Lossy
Stream size : 229 MiB (3%)
Title : Commentary with Lasse Hallström, John Irving and Richard N. Gladstein
Language : English
Default : No
Forced : No

Text #1
ID : 5
Format : PGS
Muxing mode : zlib
Codec ID : S_HDMV/PGS
Codec ID/Info : The same subtitle format used on BDs/HD-DVDs
Language : English
Default : No
Forced : No

Text #2
ID : 6
Format : PGS
Muxing mode : zlib
Codec ID : S_HDMV/PGS
Codec ID/Info : The same subtitle format used on BDs/HD-DVDs
Title : SDH
Language : English
Default : No
Forced : No

Text #3
ID : 7
Format : PGS
Muxing mode : zlib
Codec ID : S_HDMV/PGS
Codec ID/Info : The same subtitle format used on BDs/HD-DVDs
Title : BD RUS
Language : Russian
Default : No
Forced : No

Menu
00:00:00.000 : en:Opening Credits/Homer The Orphan
00:05:58.983 : en:Two New Patients
00:09:02.583 : en:"I'm Not a Doctor!"
00:09:29.026 : en:Bedtime
00:12:48.392 : en:A New Home for Hazel
00:15:48.572 : en:Movie Night
00:19:47.060 : en:Hard Being an Orphan
00:22:21.381 : en:She Died of Ignorance
00:25:59.516 : en:Wally and Candy
00:30:34.082 : en:Homer Leaves Home
00:39:27.490 : en:Apples and the Ocean
00:42:58.325 : en:A New Home
00:46:09.183 : en:First Night at the Orchard
00:48:27.195 : en:Learning the Ropes
00:52:45.662 : en:Homer Has Credentials?
00:55:11.349 : en:Dinner Date with Candy
00:58:40.683 : en:A Handpicked Gift
00:59:26.312 : en:The Nicest and Most Beautiful Girl
01:01:34.732 : en:A First-Rate Candidate
01:03:52.912 : en:"What Business You In?"
01:07:04.645 : en:What a Drive-In Is Really For
01:09:13.858 : en:Fuzzy Gets Adopted
01:11:32.329 : en:A Package from the Past
01:12:24.214 : en:A Kiss As Sweet As Candy
01:15:50.087 : en:Homer Stays Behind
01:17:25.932 : en:Letters
01:21:33.471 : en:The Orchardmen Return
01:23:24.040 : en:A Blooming Rose
01:27:41.547 : en:The Father
01:33:07.123 : en:Injured in the Line of Duty
01:36:53.766 : en:The Doctor Business
01:40:33.986 : en:The Cider House Rules
01:45:06.675 : en:Nothing Is Nothing
01:45:57.642 : en:Putting Things Straight
01:49:55.964 : en:It's Hard to Say Goodbye
01:56:17.011 : en:Homer Returns Home
02:01:05.508 : en:End Credits


_________________
Проголосуй за трекер Открытый торрент трекер - RUS-MEDIA.ORG

Проголосуй Открытый торрент трекер - RUS-MEDIA.ORG



реклама партнёра


Вернуться к началу
 Профиль Отправить личное сообщение  
 
   Похожие торренты   Автор   Торрент   Размер 
В этой теме нет новых непрочитанных сообщений. Правила виноделов / The Cider House Rules [Мелодрама, драма, экранизация, 1999] BDRemux 1080p, Dub

salma3

9 | 12

20.6 ГБ

В этой теме нет новых непрочитанных сообщений. Правила боя / Rules of Engagement [боевик, драма, военный, 2000] BDRip 1080p, Dub+Sub

salma3

7 | 5

11.29 ГБ

В этой теме нет новых непрочитанных сообщений. Правила боя / Rules of Engagement [боевик, триллер, драма, военный, 2000] BDRip 1080p, Dub+Sub

salma3

7 | 1

10.54 ГБ

В этой теме нет новых непрочитанных сообщений. Правила совместной жизни / Rules of Engagement [S07х01-13] [Комедия, мелодрама, 2013] WEB-DL 1080p. Mvo+Dvo

salma3

3 | 2

11.11 ГБ

В этой теме нет новых непрочитанных сообщений. Вне правил / Rules Don't Apply [Драма, мелодрама, комедия, 2016] BDRip 720p, Mvo [iTunes]

salma3

97 | 69

6.11 ГБ

В этой теме нет новых непрочитанных сообщений. Сидр с Роузи / Cider with Rosie [драма, мелодрама, биография, 1998] DVDRip, Avo

salma3

14 | 1

1.47 ГБ

В этой теме нет новых непрочитанных сообщений. Вне правил / Rules Don't Apply [Драма, мелодрама, комедия, 2016] BDRip, Mvo [iTunes]

salma3

456 | 160

1.46 ГБ


Начать новую тему Ответить на тему  [ 1 сообщение ] 




Для Мосгорсуда, Роскомнадзора и рекламодателей:: mosgorsud-torrent[собачка]yandex.ru
cron