Торрент файл
скачать торрент магнет ссылка Добавлен: 24 май 2015, 11:51
Размер: 5.43 ГБ
Сидеров: 24
Личеров: 2
Автор

СообщениеДобавлено: 24 май 2015, 11:51 

Не в сети
Супермодератор
Аватара пользователя
Дата регистрации:
15 фев 2012, 16:44
Возраст: 28
Спасибо: 6565 / 2130
Сообщения: 43671
Год выхода: 1991
Жанр: комедия, мелодрама, драма, фэнтези
Режиссер: Мик Джексон /Mick Jackson/
В ролях: Стив Мартин /Steve Martin/, Виктория Теннант /Victoria Tennant/, Ричард Э. Грант /Richard E. Grant/, Мэрилу Хеннер /Marilu Henner/, Сара Джессика Паркер /Sarah Jessica Parker/, Сьюзен Форристал /Susan Forristal/, Кевин Поллак /Kevin Pollak/, Сэм МакМюррей /Sam McMurray/, Патрик Стюарт /Patrick Stewart/, Эндрю Амадор /Andrew Amador/

О фильме:
«Человеку настроения» — синоптику Харрису — надоела работа на телевидении, сумасшедшие ритмы Лос-Анджелеса и вообще всё на свете. Единственная радость — романтическая встреча с английской журналисткой, которая возвращает ему любовь к жизнерадостному хаосу великого города.



Страна: США
Студии: Carolco Pictures Inc. / IndieProd Company Productions / L.A. Films
Продолжительность: 01:31:22
Перевод:
Профессиональный (многоголосый, закадровый)
Авторский (одноголосый, закадровый) - Владимир Завгородний
Авторский (одноголосый, закадровый) - Алексей Михалев

Рип от EbP!

Файл
Кодек: H.264
Качество: BDRip 720p
Видео: 1280x694 at 25.000 fps, x264@L4.1, crf, ~6801 kbps avg
Аудио#1: Russian: 48 kHz, AC3, 3/2 (L,C,R,l,r) + LFE ch, ~448.00 kbps avg |Многоголосый закадровый|
Аудио#2: Russian: 48 kHz, AC3, 3/2 (L,C,R,l,r) + LFE ch, ~448.00 kbps avg |Одноголосый закадровый, Владимир Завгородний|
Аудио#3: Russian: 48 kHz, AC3, 2/0 (L,R) ch, ~192.00 kbps avg |Одноголосый закадровый, Алексей Михалев|
Аудио#4: English: 48 kHz, AC3, 3/2 (L,C,R,l,r) + LFE ch, ~448.00 kbps avg |Оригинал|
Субтитры: Russian (Full), English (Full)


General
Complete name : L.A.Story.1991.720p.BluRay.3xRus.Eng.EbP.mkv
Format : Matroska
Format version : Version 4 / Version 2
File size : 5.43 GiB
Duration : 1h 31mn
Overall bit rate : 8 506 Kbps
Movie name : L.A. Story (1991)
Encoded date : UTC 2015-05-23 17:44:20
Writing application : mkvmerge v7.9.0 ('Birds') 64bit
Writing library : libebml v1.3.1 + libmatroska v1.4.2

Video
ID : 1
Format : AVC
Format/Info : Advanced Video Codec
Format profile : High@L4.1
Format settings, CABAC : Yes
Format settings, ReFrames : 9 frames
Codec ID : V_MPEG4/ISO/AVC
Duration : 1h 31mn
Bit rate : 6 801 Kbps
Width : 1 280 pixels
Height : 694 pixels
Display aspect ratio : 1.85:1
Frame rate mode : Constant
Frame rate : 25.000 fps
Color space : YUV
Chroma subsampling : 4:2:0
Bit depth : 8 bits
Scan type : Progressive
Bits/(Pixel*Frame) : 0.306
Stream size : 4.34 GiB (80%)
Title : L.A. Story (1991)
Writing library : x264 core 146 r2538 121396c
Encoding settings : cabac=1 / ref=9 / deblock=1:-3:-3 / analyse=0x3:0x133 / me=umh / subme=10 / psy=1 / psy_rd=1.05:0.00 / mixed_ref=1 / me_range=16 / chroma_me=1 / trellis=2 / 8x8dct=1 / cqm=0 / deadzone=21,11 / fast_pskip=0 / chroma_qp_offset=-2 / threads=12 / lookahead_threads=2 / sliced_threads=0 / nr=0 / decimate=0 / interlaced=0 / bluray_compat=0 / constrained_intra=0 / bframes=9 / b_pyramid=2 / b_adapt=2 / b_bias=0 / direct=3 / weightb=1 / open_gop=0 / weightp=2 / keyint=250 / keyint_min=25 / scenecut=40 / intra_refresh=0 / rc=crf / mbtree=0 / crf=17.0 / qcomp=0.60 / qpmin=0 / qpmax=69 / qpstep=4 / ip_ratio=1.40 / pb_ratio=1.30 / aq=3:0.70 / zones=131693,137057,crf=22
Language : English
Default : Yes
Forced : No

Audio #1
ID : 2
Format : AC-3
Format/Info : Audio Coding 3
Mode extension : CM (complete main)
Format settings, Endianness : Big
Codec ID : A_AC3
Duration : 1h 31mn
Bit rate mode : Constant
Bit rate : 448 Kbps
Channel(s) : 6 channels
Channel positions : Front: L C R, Side: L R, LFE
Sampling rate : 48.0 KHz
Bit depth : 16 bits
Compression mode : Lossy
Stream size : 293 MiB (5%)
Title : AC3 5.1 ch @ 448 kbps - MVO
Language : Russian
Default : Yes
Forced : No

Audio #2
ID : 3
Format : AC-3
Format/Info : Audio Coding 3
Mode extension : CM (complete main)
Format settings, Endianness : Big
Codec ID : A_AC3
Duration : 1h 31mn
Bit rate mode : Constant
Bit rate : 448 Kbps
Channel(s) : 6 channels
Channel positions : Front: L C R, Side: L R, LFE
Sampling rate : 48.0 KHz
Bit depth : 16 bits
Compression mode : Lossy
Stream size : 293 MiB (5%)
Title : AC3 5.1 ch @ 448 kbps - AVO (В. Завгородний)
Language : Russian
Default : No
Forced : No

Audio #3
ID : 4
Format : AC-3
Format/Info : Audio Coding 3
Mode extension : CM (complete main)
Format settings, Endianness : Big
Codec ID : A_AC3
Duration : 1h 31mn
Bit rate mode : Constant
Bit rate : 192 Kbps
Channel(s) : 2 channels
Channel positions : Front: L R
Sampling rate : 48.0 KHz
Bit depth : 16 bits
Compression mode : Lossy
Stream size : 125 MiB (2%)
Title : AC3 2.0 ch @ 192 kbps - AVO (А. Михалев)
Language : Russian
Default : No
Forced : No

Audio #4
ID : 5
Format : AC-3
Format/Info : Audio Coding 3
Mode extension : CM (complete main)
Format settings, Endianness : Big
Codec ID : A_AC3
Duration : 1h 31mn
Bit rate mode : Constant
Bit rate : 448 Kbps
Channel(s) : 6 channels
Channel positions : Front: L C R, Side: L R, LFE
Sampling rate : 48.0 KHz
Bit depth : 16 bits
Compression mode : Lossy
Stream size : 293 MiB (5%)
Title : AC3 5.1 ch @ 448 kbps
Language : English
Default : No
Forced : No

Text #1
ID : 6
Format : UTF-8
Codec ID : S_TEXT/UTF8
Codec ID/Info : UTF-8 Plain Text
Title : Full
Language : Russian
Default : No
Forced : No

Text #2
ID : 7
Format : UTF-8
Codec ID : S_TEXT/UTF8
Codec ID/Info : UTF-8 Plain Text
Title : Full
Language : English
Default : No
Forced : No

Menu
00:00:00.000 : en:00:00:00.000
00:10:44.440 : en:00:10:44.440
00:19:55.000 : en:00:19:55.000
00:28:50.080 : en:00:28:50.080
00:39:31.840 : en:00:39:31.840
00:48:03.040 : en:00:48:03.040
00:56:56.960 : en:00:56:56.960
01:07:42.160 : en:01:07:42.160
01:16:00.200 : en:01:16:00.200
01:25:11.320 : en:01:25:11.320
01:27:48.640 : en:01:27:48.640
ЦитатаКто-то писал:
[*] Сохранены оригинальные главы как на Blu-ray.


_________________
Проголосуй за трекер Открытый торрент трекер - RUS-MEDIA.ORG

Проголосуй Открытый торрент трекер - RUS-MEDIA.ORG



реклама партнёра


Вернуться к началу
 Профиль Отправить личное сообщение  
 
   Похожие торренты   Автор   Торрент   Размер 
В этой теме нет новых непрочитанных сообщений. История призрака / A Ghost Story [фэнтези, драма, мелодрама, 2017] BDRip 720p, Mvo

salma3

222 | 56

2.73 ГБ

В этой теме нет новых непрочитанных сообщений. История вечной любви / Ever After: A Cinderella Story [драма, мелодрама, комедия, 1998] BDRip 720p, 2Mvo+Sub

salma3

14 | 6

4.61 ГБ

В этой теме нет новых непрочитанных сообщений. История о Рикки / Riki-Oh: The Story of Ricky / Lik Wong [ужасы, боевик, комедия, 1991] BDRip-AVC, Avo

salma3

19 | 4

743.11 МБ

В этой теме нет новых непрочитанных сообщений. История игрушек 2 / Toy Story 2 [мультфильм, фэнтези, комедия, 1999] BDRip 1080p, Dub

salma3

28 | 11

4.37 ГБ

В этой теме нет новых непрочитанных сообщений. Мы вернулись! История динозавра / We're Back! A Dinosaur's Story [мультфильм, фэнтези, приключения, семейный, 1993] BDRip 720p, Mvo

salma3

21 | 10

7.62 ГБ

В этой теме нет новых непрочитанных сообщений. История призрака / A Ghost Story [фэнтези, драма, мелодрама, 2017] HDRip, Mvo

salma3

201 | 40

1.37 ГБ

В этой теме нет новых непрочитанных сообщений. История призрака / A Ghost Story [Драма, мелодрама, фэнтези, 2017] HDRip, Avo

salma3

1956 | 121

1.51 ГБ


Начать новую тему Ответить на тему  [ 1 сообщение ] 




Для Мосгорсуда, Роскомнадзора и рекламодателей:: mosgorsud-torrent[собачка]yandex.ru