Торрент файл
скачать торрент магнет ссылка Добавлен: 21 май 2015, 20:07
Размер: 10.92 ГБ
Сидеров: 21
Личеров: 2
Автор

СообщениеДобавлено: 21 май 2015, 20:07 

Не в сети
Супермодератор
Аватара пользователя
Дата регистрации:
15 фев 2012, 16:44
Возраст: 28
Спасибо: 7223 / 2147
Сообщения: 67788
Страна: Германия
Жанр: комедия, мелодрама
Продолжительность: 01:29:11
Перевод: профессиональный двухголосый

Режиссёр: Леандер Хаусманн

В ролях: Александер Шеер, Александр Байер, Катарина Тальбах, Тереза Вайсбах, Детлев Бук, Хенри Хюбхен, Игнац Кирхнер, Роберт Штадлобер, Анника Кул, Елена Майснер

Описание: ГДР 70-х годов. Миха и его друзья живут возле разделяющей город Берлинской стены на восточной стороне Солнечной аллеи, той самой улицы, которая начинается в Западном, а заканчивается в Восточном Берлине. На востоке — участковые, агенты «штази» и партийные лозунги, на западе — бананы, порножурналы, диски «Rolling Stones» и нейлоновые колготки. Но Миху и его друзей не интересуют принципиальные разногласия между «пролетарским» востоком и «буржуазным» западом. Их волнуют лишь рок-музыка, выпивка и девчонки, особенно Мириам — несравненная и недоступная, способная одним своим появлением остановить уличное движение. Ради неё Миха готов на всё...




Качество: BDRip 1080p Сравнение с исходником
Формат: MKV
Видео: MPEG-4 AVC, 16.2 Mбит/с, 1920x1080, 23,976 кадра/с
Аудио 1: русский, AC3, 192 kbps, 2 ch, 48 kHz [профессиональный двухголосый, по заказу "Екатеринбург Арт"]
Аудио 2: немецкий, DTS, 768 kbps, 2 ch, 48 kHz [оригинал]

Общее
Уникальный идентификатор : 220816113216971820276905731837253937608 (0xA61FA2EF5B0975F3B512C887E09869C8)
Полное имя : D:VideoСолнечная аллея.1999.BDRip.1080p.mkv
Формат : Matroska
Версия формата : Version 4 / Version 2
Размер файла : 10,9 Гбайт
Продолжительность : 1 ч. 29 м.
Общий поток : 17,5 Мбит/сек
Название фильма : BDRip -- STarankov
Дата кодирования : UTC 2015-05-17 00:42:55
Программа кодирования : mkvmerge v7.9.0 ('Birds') 64bit
Библиотека кодирования : libebml v1.3.1 + libmatroska v1.4.2
_STATISTICS_WRITING_APP : mkvmerge v7.9.0 ('Birds') 64bit
_STATISTICS_WRITING_DATE_UTC : 2015-05-17 00:42:55
_STATISTICS_TAGS : BPS DURATION NUMBER_OF_FRAMES NUMBER_OF_BYTES
DURATION : 01:29:10.646000000
NUMBER_OF_FRAMES : 501623
NUMBER_OF_BYTES : 513662016

Видео
Идентификатор : 1
Формат : AVC
Формат/Информация : Advanced Video Codec
Профиль формата : High@L4.1
Параметр CABAC формата : Да
Параметр ReFrames формата : 4 кадра
Идентификатор кодека : V_MPEG4/ISO/AVC
Продолжительность : 1 ч. 29 м.
Битрейт : 16,2 Мбит/сек
Ширина : 1920 пикселей
Высота : 1080 пикселей
Соотношение сторон : 16:9
Режим частоты кадров : Постоянный
Частота кадров : 23,976 кадра/сек
Цветовое пространство : YUV
Субдискретизация насыщенности : 4:2:0
Битовая глубина : 8 бит
Тип развёртки : Прогрессивная
Бит/(Пиксели*Кадры) : 0.326
Размер потока : 10,1 Гбайт (93%)
Библиотека кодирования : x264 core 146 r2538 121396c
Настройки программы : cabac=1 / ref=4 / deblock=1:-1:-1 / analyse=0x3:0x113 / me=umh / subme=10 / psy=1 / psy_rd=1.00:0.15 / mixed_ref=1 / me_range=32 / chroma_me=1 / trellis=2 / 8x8dct=1 / cqm=0 / deadzone=21,11 / fast_pskip=1 / chroma_qp_offset=-3 / threads=6 / lookahead_threads=1 / sliced_threads=0 / nr=0 / decimate=1 / interlaced=0 / bluray_compat=0 / constrained_intra=0 / bframes=11 / b_pyramid=2 / b_adapt=2 / b_bias=0 / direct=1 / weightb=1 / open_gop=0 / weightp=2 / keyint=230 / keyint_min=23 / scenecut=40 / intra_refresh=0 / rc_lookahead=40 / rc=crf / mbtree=0 / crf=21.0 / qcomp=0.60 / qpmin=0 / qpmax=69 / qpstep=4 / vbv_maxrate=40000 / vbv_bufsize=50000 / crf_max=0.0 / nal_hrd=none / filler=0 / ip_ratio=1.40 / pb_ratio=1.30 / aq=1:1.00
Язык : German
Default : Да
Forced : Нет
DURATION : 01:29:10.637000000
NUMBER_OF_FRAMES : 128287
NUMBER_OF_BYTES : 11078553214
_STATISTICS_WRITING_APP : mkvmerge v7.9.0 ('Birds') 64bit
_STATISTICS_WRITING_DATE_UTC : 2015-05-17 00:42:55
_STATISTICS_TAGS : BPS DURATION NUMBER_OF_FRAMES NUMBER_OF_BYTES

Аудио #1
Идентификатор : 2
Формат : AC-3
Формат/Информация : Audio Coding 3
Расширение режима : CM (complete main)
Параметр Endianness формата : Big
Идентификатор кодека : A_AC3
Продолжительность : 1 ч. 29 м.
Вид битрейта : Постоянный
Битрейт : 192 Кбит/сек
Каналы : 2 канала
Расположение каналов : Front: L R
Частота : 48,0 КГц
Битовая глубина : 16 бит
Метод сжатия : С потерями
Размер потока : 122 Мбайт (1%)
Заголовок : DVO (по заказу "Екатеринбург Арт")
Язык : Russian
Default : Да
Forced : Нет

Аудио #2
Идентификатор : 3
Формат : DTS
Формат/Информация : Digital Theater Systems
Режим : 16
Параметр Endianness формата : Big
Идентификатор кодека : A_DTS
Продолжительность : 1 ч. 29 м.
Вид битрейта : Постоянный
Битрейт : 768 Кбит/сек
Каналы : 2 канала
Расположение каналов : Front: L R
Частота : 48,0 КГц
Битовая глубина : 24 бит
Метод сжатия : С потерями
Размер потока : 490 Мбайт (4%)
Заголовок : Original
Язык : German
Default : Нет
Forced : Нет





_________________
Проголосуй за трекер Открытый торрент трекер - RUS-MEDIA.ORG

Проголосуй Открытый торрент трекер - RUS-MEDIA.ORG


Вернуться к началу
 Профиль Отправить личное сообщение  
 
   Похожие торренты   Автор   Торрент   Размер 
В этой теме нет новых непрочитанных сообщений. Это всё она / She's All That [мелодрама, комедия, 1999] BDRip 1080p, Mvo

salma3

0 | 0

8.05 ГБ

В этой теме нет новых непрочитанных сообщений. Идеальный муж / An Ideal Husband [мелодрама, комедия, 1999] BDRip 1080p, Mvo

salma3

0 | 3

8.6 ГБ

В этой теме нет новых непрочитанных сообщений. Выскочка / Election [драма, мелодрама, комедия, 1999] BDRip 1080p, Dvo

salma3

5 | 1

7.82 ГБ

В этой теме нет новых непрочитанных сообщений. Фердинанд и Каролина / Ferdinando e Carolina [Мелодрама, комедия, история, 1999] BDRip 1080p, Dvo

salma3

2 | 0

9.79 ГБ

В этой теме нет новых непрочитанных сообщений. Западня / Entrapment [триллер, мелодрама, криминал, 1999] BDRip-HEVC 1080p, Dub

salma3

0 | 0

6.09 ГБ

В этой теме нет новых непрочитанных сообщений. Это всё она / She's All That [мелодрама, комедия, 1999] BDRip 720p, Mvo

salma3

8 | 2

5.38 ГБ

В этой теме нет новых непрочитанных сообщений. Кровавое лето Сэма / Summer of Sam [Триллер, драма, мелодрама, 1999] BDRip 1080p, Dvo

salma3

0 | 1

12.05 ГБ


Начать новую тему Ответить на тему  [ 1 сообщение ] 




Для Мосгорсуда, Роскомнадзора и рекламодателей:: mosgorsud-torrent[собачка]yandex.ru
cron