Торрент файл
скачать торрент магнет ссылка Добавлен: 21 май 2015, 11:01
Размер: 5.1 ГБ
Сидеров: 4
Личеров: 0
Автор

СообщениеДобавлено: 21 май 2015, 11:01 

Не в сети
Зам. Админа
Аватара пользователя
Дата регистрации:
02 дек 2010, 12:39
Спасибо: 12656 / 214
Сообщения: 28010
Год выхода: 2015
Жанр: триллер
Режиссер: Роб Коэн
В ролях: Дженнифер Лопес, Райан Гузман, Иэн Нельсон, Джон Корбетт, Кристин Ченоуэт, Лекси Аткинс, Хилл Харпер, Джек Уоллес, Адам Хикс, Франсуа Чау, Бэйли Чейз, Кент Авенидо, Трэвис Шульдт, Брайан Махони, Рэкуэл Гарднер, Кари Пердю, Чад Баллард, Форрест Хоффман, Брэндон Раш, Кот Декстер

О фильме:
Фильм рассказывает об учительнице литературы Клэр Петерсон. Клэр знает о том, что муж изменяет ей, но тянет с разводом.
Однажды, в дом по соседству въезжает харизматичный 19-летний красавчик Ной, который начинает оказывать Клэр повышенное внимание. Поддавшись слабости, Клэр проводит с ним ночь. Но она и не подозревала, что в скором времени влечение Ноя к ней перерастет в опасную одержимость…



Качество: BDRip [720p]
Видео: MPEG4 (AVC), 1280x534, 23.976 fps, 6673 Kb/s
Аудио #1: AC3, 48 KHz, 6 ch, 384 Kb/s - русский
Аудио #2: AC3, 48 KHz, 6 ch, 640 Kb/s - английский
Аудио #3: AC3, 48 KHz, 2 ch, 192 Kb/s - английский (комментарии режиссёра)
Продолжительность: 01:30:41
Перевод: Дублированный [iTunes]
Субтитры: Английские
General
Unique ID : 208253716492891108757629391105676312758 (0x9CAC34F4EE7A3AC78458F1C25FD480B6)
Complete name : D:The.Boy.Next.Door.2015.D.BDRip.720p.mkv
Format : Matroska
Format version : Version 4 / Version 2
File size : 5.10 GiB
Duration : 1h 30mn
Overall bit rate : 8 049 Kbps
Encoded date : UTC 2015-05-20 18:38:30
Writing application : mkvmerge v6.5.0 ('Isn't she lovely') built on Oct 20 2013 12:50:05
Writing library : libebml v1.3.0 + libmatroska v1.4.1
DURATION : 01:23:42.684000000
NUMBER_OF_FRAMES : 1493
NUMBER_OF_BYTES : 41037
_STATISTICS_WRITING_APP : mkvmerge v7.7.0 ('Six Voices') 32bit built on Feb 28 2015 23:23:00
_STATISTICS_WRITING_DATE_UT : 2015-04-20 16:44:00
_STATISTICS_TAGS : BPS DURATION NUMBER_OF_FRAMES NUMBER_OF_BYTES

Video
ID : 1
Format : AVC
Format/Info : Advanced Video Codec
Format profile : High@L4.1
Format settings, CABAC : Yes
Format settings, ReFrames : 12 frames
Codec ID : V_MPEG4/ISO/AVC
Duration : 1h 30mn
Bit rate : 6 673 Kbps
Width : 1 280 pixels
Height : 534 pixels
Display aspect ratio : 2.40:1
Frame rate mode : Constant
Frame rate : 23.976 fps
Color space : YUV
Chroma subsampling : 4:2:0
Bit depth : 8 bits
Scan type : Progressive
Bits/(Pixel*Frame): 0.407
Stream size : 4.23 GiB (83%)
Title : The Boy Next Door (2015)
Writing library : x264 core 146 r2538kMod 121396c
Encoding settings : cabac=1 / ref=12 / deblock=1:-3:-3 / analyse=0x3:0x133 / me=umh / subme=10 / psy=1 / fade_compensate=0.00 / psy_rd=1.05:0.00 / mixed_ref=1 / me_range=32 / chroma_me=1 / trellis=2 / 8x8dct=1 / cqm=0 / deadzone=21,11 / fast_pskip=0 / chroma_qp_offset=-2 / threads=6 / lookahead_threads=1 / sliced_threads=0 / nr=0 / decimate=0 / interlaced=0 / bluray_compat=0 / constrained_intra=0 / fgo=0 / bframes=7 / b_pyramid=2 / b_adapt=2 / b_bias=0 / direct=3 / weightb=1 / open_gop=0 / weightp=2 / keyint=250 / keyint_min=23 / scenecut=40 / intra_refresh=0 / rc_lookahead=60 / rc=crf / mbtree=0 / crf=17.0000 / qcomp=0.70 / qpmin=0 / qpmax=69 / qpstep=4 / vbv_maxrate=62500 / vbv_bufsize=78125 / crf_max=0.0 / nal_hrd=none / filler=0 / ip_ratio=1.30 / pb_ratio=1.20 / aq=1:0.80
Language : English
Default : Yes
Forced : No
DURATION : 01:30:41.228000000
NUMBER_OF_FRAMES : 130459
NUMBER_OF_BYTES : 4645822681
_STATISTICS_WRITING_APP : mkvmerge v7.7.0 ('Six Voices') 32bit built on Feb 28 2015 23:23:00
_STATISTICS_WRITING_DATE_UT : 2015-04-20 16:44:00
_STATISTICS_TAGS : BPS DURATION NUMBER_OF_FRAMES NUMBER_OF_BYTES

Audio #1
ID : 2
Format : AC-3
Format/Info : Audio Coding 3
Mode extension : CM (complete main)
Format settings, Endianness : Big
Codec ID : A_AC3
Duration : 1h 30mn
Bit rate mode : Constant
Bit rate : 384 Kbps
Channel(s): 6 channels
Channel positions : Front: L C R, Side: L R, LFE
Sampling rate : 48.0 KHz
Bit depth : 16 bits
Compression mode : Lossy
Stream size : 249 MiB (5%)
Language : Russian
Default : Yes
Forced : No

Audio #2
ID : 3
Format : AC-3
Format/Info : Audio Coding 3
Mode extension : CM (complete main)
Format settings, Endianness : Big
Codec ID : A_AC3
Duration : 1h 30mn
Bit rate mode : Constant
Bit rate : 640 Kbps
Channel(s): 6 channels
Channel positions : Front: L C R, Side: L R, LFE
Sampling rate : 48.0 KHz
Bit depth : 16 bits
Compression mode : Lossy
Stream size : 415 MiB (8%)
Language : English
Default : No
Forced : No

Audio #3
ID : 4
Format : AC-3
Format/Info : Audio Coding 3
Format profile : Dolby Digital
Mode extension : CM (complete main)
Format settings, Endianness : Big
Codec ID : A_AC3
Duration : 1h 30mn
Bit rate mode : Constant
Bit rate : 192 Kbps
Channel(s): 2 channels
Channel positions : Front: L R
Sampling rate : 48.0 KHz
Bit depth : 16 bits
Compression mode : Lossy
Stream size : 125 MiB (2%)
Title : Commentary with Director Rob Cohen
Language : English
Default : No
Forced : No

Text #1
ID : 5
Format : UTF-8
Codec ID : S_TEXT/UTF8
Codec ID/Info : UTF-8 Plain Text
Language : English
Default : No
Forced : No

Text #2
ID : 6
Format : UTF-8
Codec ID : S_TEXT/UTF8
Codec ID/Info : UTF-8 Plain Text
Title : SDH
Language : English
Default : No
Forced : No

Menu
00:00:00.000 : en:Chapter 1
00:04:29.769 : en:Chapter 2
00:10:39.931 : en:Chapter 3
00:15:32.890 : en:Chapter 4
00:20:31.021 : en:Chapter 5
00:24:41.730 : en:Chapter 6
00:26:53.570 : en:Chapter 7
00:30:49.681 : en:Chapter 8
00:35:51.441 : en:Chapter 9
00:40:20.627 : en:Chapter 10
00:45:47.370 : en:Chapter 11
00:49:24.795 : en:Chapter 12
00:53:28.956 : en:Chapter 13
00:56:43.650 : en:Chapter 14
01:00:45.851 : en:Chapter 15
01:03:44.988 : en:Chapter 16
01:09:31.042 : en:Chapter 17
01:14:06.609 : en:Chapter 18
01:19:50.953 : en:Chapter 19
01:24:33.527 : en:Chapter 20













Вернуться к началу
 Профиль  
 
   Похожие торренты   Автор   Торрент   Размер 
В этой теме нет новых непрочитанных сообщений. Поклонник / The Boy Next Door [триллер, 2015] BDRip-AVC, Dub

salma3

8 | 3

3.35 ГБ

В этой теме нет новых непрочитанных сообщений. Выхода нет / No Escape [боевик, Триллер, 2015] BDRip 720p, Dub+Sub [iTunes ]

Dracon

99 | 14

4.47 ГБ

В этой теме нет новых непрочитанных сообщений. Агорафобия / Agoraphobia [Триллер, мистика, 2015] BDRip 720p, Mvo [iTunes]

salma3

15 | 8

3.5 ГБ

В этой теме нет новых непрочитанных сообщений. Идём со мной / Blackway (Триллер, 2015) BDRip 720p | iTunes

marya111

0 | 0

3.2 ГБ

В этой теме нет новых непрочитанных сообщений. Легенда / Legend [Триллер, драма, криминал, 2015] BDRip 720p, dub [iTunes]

Dracon

11068 | 1602

4.72 ГБ

В этой теме нет новых непрочитанных сообщений. Гризли / Into the Grizzly Maze [ужасы, боевик, триллер, 2015] BDRip 720p, Mvo [iTunes]

salma3

174 | 15

4.65 ГБ

В этой теме нет новых непрочитанных сообщений. Коэн и Тейт / Cohen and Tate [триллер, криминал, 1988] BDRip 720p, Mvo+Avo

salma3

42 | 16

6.47 ГБ


Начать новую тему Ответить на тему  [ 1 сообщение ] 




Для Мосгорсуда, Роскомнадзора и рекламодателей:: mosgorsud-torrent[собачка]yandex.ru
cron