Торрент файл
скачать торрент магнет ссылка Добавлен: 17 май 2015, 20:28
Размер: 4.48 ГБ
Сидеров: 40
Личеров: 0
Автор

СообщениеДобавлено: 17 май 2015, 20:28 

Не в сети
Супермодератор
Аватара пользователя
Дата регистрации:
15 фев 2012, 16:44
Возраст: 28
Спасибо: 6642 / 2146
Сообщения: 45664
Год выхода: 1980
Жанр: ужасы, триллер, драма, криминал
Режиссер: Уильям Лустиг

В ролях: Джо Спинелл, Кэролайн Манро, Эбигэйл Клэйтон, Келли Пайпер, Рита Монтон, Том Савини, Джеймс Брюстер, Линда Ли Уолтер, Трейси Эванс

О фильме:
Предельно натуралистичное бытописание будней обычного американского маньяка. Монстр в человеческом обличье выслеживает женщин, жестоко их убивает, скальпирует, а «трофеи» прибивает к головам манекенов, коими изобилует его логовище. Зрелище для людей с крепкими нервами и желудками — грим Тома Савини безупречен и пугающ до отвращения. Ужас «Маньяка» таится именно в обыденности происходящего.



Страна: США
Продолжительность: 01:27:58
Перевод: Авторский (одноголосый,закадровый) Штейн

Файл
Кодек: x264
Качество: BDRip 720p
Видео: 1280x690, 6343 kbps at 23.976 fps
Аудио 1: Russian: 48 kHz, AC3 2.0 @ 192 kbps |Авторский закадровый, Штейн|
Аудио 2: English: 48 kHz, AAC 2.0 @ q=0.25|Комментарии №1|
Аудио 3: English: 48 kHz, AAC 2.0 @ q=0.25|Комментарии №2|
Аудио 4: English: 48 kHz, AC3 5.1 @ 640 kbps |Оригинал|
Субтитры: English, Danish


General
Unique ID : 206994885960963333969441838648419655284 (0x9BB9C3D1D835C25AA5B20F1DF9BB9E74)
Complete name : L:Маньяк (Maniac).1980.BDRip.720p.-iLL.mkv
Format : Matroska
File size : 4.48 GiB
Duration : 1h 27mn
Overall bit rate : 7 290 Kbps
Encoded date : UTC 2011-03-12 04:37:54
Writing application : mkvmerge v4.4.0 ('Die Wiederkehr') сборка от Dec 25 2010 23:32:50
Writing library : libebml v1.0.0 + libmatroska v1.0.0

Video
ID : 1
Format : AVC
Format/Info : Advanced Video Codec
Format profile : High@L4.1
Format settings, CABAC : Yes
Format settings, ReFrames : 9 frames
Format settings, GOP : N=1
Codec ID : V_MPEG4/ISO/AVC
Duration : 1h 27mn
Nominal bit rate : 6 343 Kbps
Width : 1 280 pixels
Height : 690 pixels
Display aspect ratio : 1.855
Frame rate : 23.976 fps
Color space : YUV
Chroma subsampling : 4:2:0
Bit depth : 8 bits
Scan type : Progressive
Bits/(Pixel*Frame) : 0.300
Writing library : x264 core 114 r1913 5fd3dce
Encoding settings : cabac=1 / ref=9 / deblock=1:-3:-3 / analyse=0x3:0x113 / me=umh / subme=10 / psy=1 / psy_rd=1.10:0.00 / mixed_ref=1 / me_range=24 / chroma_me=1 / trellis=2 / 8x8dct=1 / cqm=0 / deadzone=21,11 / fast_pskip=0 / chroma_qp_offset=-2 / threads=3 / sliced_threads=0 / nr=0 / decimate=0 / interlaced=0 / constrained_intra=0 / bframes=7 / b_pyramid=2 / b_adapt=2 / b_bias=0 / direct=3 / weightb=1 / open_gop=0 / weightp=2 / keyint=250 / keyint_min=23 / scenecut=40 / intra_refresh=0 / rc=2pass / mbtree=0 / bitrate=6343 / ratetol=1.0 / qcomp=0.60 / qpmin=0 / qpmax=69 / qpstep=4 / cplxblur=20.0 / qblur=0.5 / ip_ratio=1.40 / pb_ratio=1.30 / aq=1:0.60
Language : English

Audio #1
ID : 2
Format : AC-3
Format/Info : Audio Coding 3
Mode extension : CM (complete main)
Codec ID : A_AC3
Duration : 1h 27mn
Bit rate mode : Constant
Bit rate : 192 Kbps
Channel(s) : 2 channels
Channel positions : Front: L R
Sampling rate : 48.0 KHz
Bit depth : 16 bits
Compression mode : Lossy
Stream size : 121 MiB (3%)
Title : AC3 2.0 @ 192 kbps |Авторский закадровый, Штейн|
Language : Russian

Audio #2
ID : 3
Format : AAC
Format/Info : Advanced Audio Codec
Format profile : HE-AAC / LC
Codec ID : A_AAC
Duration : 1h 27mn
Channel(s) : 2 channels
Channel positions : Front: L R
Sampling rate : 48.0 KHz / 24.0 KHz
Compression mode : Lossy
Title : AAC 2.0 @ q=0.25|Комментарии №1|
Language : English

Audio #3
ID : 4
Format : AAC
Format/Info : Advanced Audio Codec
Format profile : HE-AAC / LC
Codec ID : A_AAC
Duration : 1h 27mn
Channel(s) : 2 channels
Channel positions : Front: L R
Sampling rate : 48.0 KHz / 24.0 KHz
Compression mode : Lossy
Title : AAC 2.0 @ q=0.25|Комментарии №2|
Language : English

Audio #4
ID : 5
Format : AC-3
Format/Info : Audio Coding 3
Mode extension : CM (complete main)
Codec ID : A_AC3
Duration : 1h 27mn
Bit rate mode : Constant
Bit rate : 640 Kbps
Channel(s) : 6 channels
Channel positions : Front: L C R, Side: L R, LFE
Sampling rate : 48.0 KHz
Bit depth : 16 bits
Compression mode : Lossy
Stream size : 403 MiB (9%)
Title : AC3 5.1 @ 640 kbps |Оригинал|
Language : English

Text #1
ID : 6
Format : UTF-8
Codec ID : S_TEXT/UTF8
Codec ID/Info : UTF-8 Plain Text
Title : SDH
Language : English

Text #2
ID : 7
Format : UTF-8
Codec ID : S_TEXT/UTF8
Codec ID/Info : UTF-8 Plain Text
Language : Danish


_________________
Проголосуй за трекер Открытый торрент трекер - RUS-MEDIA.ORG

Проголосуй Открытый торрент трекер - RUS-MEDIA.ORG



реклама партнёра


Вернуться к началу
 Профиль Отправить личное сообщение  
 
   Похожие торренты   Автор   Торрент   Размер 
В этой теме нет новых непрочитанных сообщений. Маньяк-полицейский / Maniac Cop [ужасы, боевик, криминал, 1988] BDRip-AVC, Avo

salma3

50 | 7

746.38 МБ

В этой теме нет новых непрочитанных сообщений. Маньяк-полицейский 2 / Maniac Cop 2 [ужасы, боевик, триллер, криминал, 1990] BDRemux 1080p, Avo+Sub

salma3

5 | 1

20.87 ГБ

В этой теме нет новых непрочитанных сообщений. Маньяк-полицейский 3: Знак молчания / Maniac Cop 3: Badge of Silence [ужасы, боевик, 1993] BDRip-AVC, Avo

salma3

26 | 21

744.16 МБ

В этой теме нет новых непрочитанных сообщений. Manuel Is A MILF-O-Maniac 5 / Мануэль - Маньяк Мамочек 5 (2016) WEB-DL

amadei

12 | 8

2.02 ГБ

В этой теме нет новых непрочитанных сообщений. Dessous Maniac / Маньяк Женского Белья (Luc Vega, Beverly Hills Pictures) [1990 г., All Sex, Anal Sex, VHSRip]

salma3

2 | 0

786.56 МБ

В этой теме нет новых непрочитанных сообщений. Другие ипостаси / Altered States [ужасы, фантастика, триллер, 1980] BDRip 720p, Dvo+Avo+Sub

salma3

5 | 2

4.28 ГБ

В этой теме нет новых непрочитанных сообщений. 2001 маньяк / 2001 Maniacs [Ужасы, комедия, ремейк, 2005] BDRip 720p, Dub+Sub

salma3

8 | 2

4.84 ГБ


Начать новую тему Ответить на тему  [ 1 сообщение ] 




Для Мосгорсуда, Роскомнадзора и рекламодателей:: mosgorsud-torrent[собачка]yandex.ru