Торрент файл
скачать торрент магнет ссылка Добавлен: 17 май 2015, 11:41
Размер: 18.94 ГБ
Сидеров: 30
Личеров: 5
Автор

СообщениеДобавлено: 17 май 2015, 11:41 

Не в сети
Супермодератор
Аватара пользователя
Дата регистрации:
15 фев 2012, 16:44
Возраст: 28
Спасибо: 6659 / 2146
Сообщения: 46021
Год выхода: 1991
Жанр: Фантастика, боевик, комедия
Режиссер: Стив Ванг

В ролях: Марк Хэмилл, Майкл Берриман, Грег Пайк, Джимми Уолкер, Дэвид Гэйл, Джеффри Комбс, Спайс Уильямс, Джек Армстронг, Вивиан Ву, Дебора Горман, Линни Куигли

О фильме:
В самом начале времен пришельцы прилетели на Землю, чтобы создать самое совершенное органическое оружие. Они создали человечество. Введя специальный ген в человека, они создали зоанидов - людей, которые могли по своему желанию превращаться в монстров-суперсолдат. Много эпох спустя, вождь зоаноидов по имени Зоалорд пробудился ото сна и создал корпорацию "Хронос" для того, чтобы усовершенствовать технологию зоаноидов и покорить весь мир. Был также найдет особый блок - биоусиленные доспехи пришельцев. Если его надевали пришельцы, он служил как обычный щит. Если доспехи надевал человек, его естественная сила увеличивалась в сотни раз - он становился Гайвером..



Страна: США, Япония
Студия: Imperial Entertainment
Продолжительность: 01:30:28
Перевод#1: Авторский (одноголосый закадровый) Андрей Гаврилов
Перевод#2: Авторский (одноголосый закадровый) Василий Горчаков
Перевод#3: Авторский (одноголосый закадровый) Андрей Гаврилов (ранний VHS)
Перевод#4: Авторский (одноголосый закадровый) Неизвестный (VHS)

Файл
Формат: BDAV
Качество: Blu-Ray Remux 1080p
Видео: MPEG-4 AVC, 1920x1080, 26264 Кбит/с, 25 кадр/с
Аудио#1: Русский (48 kHz, AC3, 6 ch, 384 Кбит/с)
Аудио#2: Русский (48 kHz, AC3, 2 ch, 384 Кбит/с)
Аудио#3: Русский (48 kHz, AC3, 2 ch, 192 Кбит/с)
Аудио#4: Русский (48 kHz, AC3, 2 ch, 192 Кбит/с)
Аудио#5: Английский (48 kHz, AC3, 6 ch, 448 kbps)
Субтитры: Русские, английские

Семпл: https://yadi.sk/i/5CbnGWLkggFKH

General
ID : 1 (0x1)
Complete name : C:UsersРоманDesktopGuyver (1991) BD RemuxBDMVSTREAM0000.m2ts
Format : BDAV
Format/Info : Blu-ray Video
File size : 18.9 GiB
Duration : 1h 32mn
Overall bit rate mode : Variable
Overall bit rate : 29.3 Mbps
Maximum Overall bit rate : 35.5 Mbps

Video
ID : 4113 (0x1011)
Menu ID : 1 (0x1)
Format : AVC
Format/Info : Advanced Video Codec
Format profile : High@L4.1
Format settings, CABAC : Yes
Format settings, ReFrames : 3 frames
Format settings, GOP : M=3, N=23
Codec ID : 27
Duration : 1h 32mn
Bit rate mode : Variable
Bit rate : 26.5 Mbps
Maximum bit rate : 35.0 Mbps
Width : 1 920 pixels
Height : 1 080 pixels
Display aspect ratio : 16:9
Frame rate : 23.976 fps
Standard : NTSC
Color space : YUV
Chroma subsampling : 4:2:0
Bit depth : 8 bits
Scan type : Progressive
Bits/(Pixel*Frame) : 0.534
Stream size : 17.1 GiB (90%)
Color primaries : BT.709
Transfer characteristics : BT.709
Matrix coefficients : BT.709
Color range : Limited

Audio #1
ID : 4352 (0x1100)
Menu ID : 1 (0x1)
Format : AC-3
Format/Info : Audio Coding 3
Mode extension : CM (complete main)
Format settings, Endianness : Big
Codec ID : 129
Duration : 1h 32mn
Bit rate mode : Constant
Bit rate : 384 Kbps
Channel(s) : 6 channels
Channel positions : Front: L C R, Side: L R, LFE
Sampling rate : 48.0 KHz
Bit depth : 16 bits
Compression mode : Lossy
Stream size : 254 MiB (1%)
Language : Russian

Audio #2
ID : 4353 (0x1101)
Menu ID : 1 (0x1)
Format : AC-3
Format/Info : Audio Coding 3
Mode extension : CM (complete main)
Format settings, Endianness : Big
Codec ID : 129
Duration : 1h 32mn
Bit rate mode : Constant
Bit rate : 384 Kbps
Channel(s) : 2 channels
Channel positions : Front: L R
Sampling rate : 48.0 KHz
Bit depth : 16 bits
Compression mode : Lossy
Stream size : 254 MiB (1%)
Language : Russian

Audio #3
ID : 4354 (0x1102)
Menu ID : 1 (0x1)
Format : AC-3
Format/Info : Audio Coding 3
Mode extension : CM (complete main)
Format settings, Endianness : Big
Codec ID : 129
Duration : 1h 32mn
Bit rate mode : Constant
Bit rate : 192 Kbps
Channel(s) : 2 channels
Channel positions : Front: L R
Sampling rate : 48.0 KHz
Bit depth : 16 bits
Compression mode : Lossy
Stream size : 127 MiB (1%)
Language : Russian

Audio #4
ID : 4355 (0x1103)
Menu ID : 1 (0x1)
Format : AC-3
Format/Info : Audio Coding 3
Mode extension : CM (complete main)
Format settings, Endianness : Big
Codec ID : 129
Duration : 1h 32mn
Bit rate mode : Constant
Bit rate : 192 Kbps
Channel(s) : 2 channels
Channel positions : Front: L R
Sampling rate : 48.0 KHz
Bit depth : 16 bits
Compression mode : Lossy
Stream size : 127 MiB (1%)
Language : Russian

Audio #5
ID : 4356 (0x1104)
Menu ID : 1 (0x1)
Format : AC-3
Format/Info : Audio Coding 3
Mode extension : CM (complete main)
Format settings, Endianness : Big
Codec ID : 129
Duration : 1h 32mn
Bit rate mode : Constant
Bit rate : 448 Kbps
Channel(s) : 6 channels
Channel positions : Front: L C R, Side: L R, LFE
Sampling rate : 48.0 KHz
Bit depth : 16 bits
Compression mode : Lossy
Stream size : 296 MiB (2%)
Language : English

Text #1
ID : 4608 (0x1200)
Menu ID : 1 (0x1)
Format : PGS
Codec ID : 144
Delay relative to video : 3s 420ms
Language : Russian

Text #2
ID : 4609 (0x1201)
Menu ID : 1 (0x1)
Format : PGS
Codec ID : 144
Delay relative to video : 3s 420ms
Language : Russian

Text #3
ID : 4610 (0x1202)
Menu ID : 1 (0x1)
Format : PGS
Codec ID : 144
Delay relative to video : 3s 420ms
Language : Russian

Text #4
ID : 4611 (0x1203)
Menu ID : 1 (0x1)
Format : PGS
Codec ID : 144
Language : English




_________________
Проголосуй за трекер Открытый торрент трекер - RUS-MEDIA.ORG

Проголосуй Открытый торрент трекер - RUS-MEDIA.ORG



реклама партнёра


Вернуться к началу
 Профиль Отправить личное сообщение  
 
   Похожие торренты   Автор   Торрент   Размер 
В этой теме нет новых непрочитанных сообщений. Гайвер / Guyver [Фантастика, боевик, комедия, 1991] BDRip 720p, 4Avo+Sub

salma3

82 | 3

4.89 ГБ

В этой теме нет новых непрочитанных сообщений. Гайвер 2: Темный герой / Guyver: Dark Hero [Фантастика, боевик, экранизация, 1994] WEB-DLRip-AVC, Avo

salma3

37 | 18

3.39 ГБ

В этой теме нет новых непрочитанных сообщений. Ангел тьмы / Dark Angel [ужасы, фантастика, боевик, 1990] Blu-ray Remux 1080p, 3Mvo+2Dvo+4Avo+Sub

salma3

9 | 4

26.38 ГБ

В этой теме нет новых непрочитанных сообщений. Ангел тьмы / Dark Angel [ужасы, фантастика, боевик, 1989] BDRip 1080p, 3Mvo+2Dvo+4Avo+Sub

salma3

86 | 5

7.75 ГБ

В этой теме нет новых непрочитанных сообщений. Неистребимый шпион / Spy Hard [комедия, боевик, 1996] WEB-DL 1080p, 2Mvo+4AVO+Dvo+Sub

salma3

110 | 5

6.17 ГБ

В этой теме нет новых непрочитанных сообщений. Колония / Double Team [Фантастика, боевик, триллер, комедия, 1997] Blu-Ray Remux 1080p, Dub+Mvo+Sub

salma3

39 | 6

15.37 ГБ

В этой теме нет новых непрочитанных сообщений. Человек-муравей / Ant-Man (Пейтон Рид) [фантастика, боевик, комедия, приключения, 2015] Blu-Ray Remux 1080p, Dub+Sub [2D, 3D | iTunes]

Dracon

4 | 3

35.34 ГБ


Начать новую тему Ответить на тему  [ 1 сообщение ] 




Для Мосгорсуда, Роскомнадзора и рекламодателей:: mosgorsud-torrent[собачка]yandex.ru