Торрент файл
скачать торрент магнет ссылка Добавлен: 29 апр 2015, 20:05
Размер: 7.63 ГБ
Сидеров: 25
Личеров: 2
Автор

СообщениеДобавлено: 29 апр 2015, 20:05 

Не в сети
Супермодератор
Аватара пользователя
Дата регистрации:
15 фев 2012, 16:44
Возраст: 29
Спасибо: 7377 / 2147
Сообщения: 75909
Год выхода: 2000
Жанр: фэнтези, приключения
Режиссер: Кортни Соломон / Courtney Solomon

В ролях: Джереми Айронс, Брюс Пэйн, Джастин Уэйлин, Марлон Уайанс, Роберт Миано, Тора Бёрч, Эдвард Джюзбери, Зои МакЛеллан, Ли Аренберг и др.

О фильме:
Савина, молодая императрица Измира, хочет процветания для своих подданных, но злой представитель всесильной касты магов, колдун Профион, хочет сместить ее и завладеть Скипетром Золотых Драконов.
Чтобы спасти королевство, Савина нанимает двух воров, которые должны пройти все ловушки, победить много нечисти и найти магический Амулет Красных Драконов…



Страна: США, Чехия
Продолжительность: 01:47:56
Перевод: Профессиональный (полное дублирование)

Файл
Кодек: h264
Качество: BDRip 1080 от SuperMin
Видео: 1920х1080 (16:9), 9464 Kbps, 23.976 fps
Звук: Русский (AC-3, 6ch, 448 kbps)
Субтитры: русские, английские

Video
ID : 1
Format : AVC
Format/Info : Advanced Video Codec
Format profile : High@L4.1
Format settings, CABAC : Yes
Format settings, ReFrames : 4 frames
Codec ID : V_MPEG4/ISO/AVC
Duration : 1h 47mn
Bit rate : 9 464 Kbps
Width : 1 920 pixels
Height : 1 080 pixels
Display aspect ratio : 16:9
Frame rate mode : Constant
Frame rate : 23.976 fps
Color space : YUV
Chroma subsampling : 4:2:0
Bit depth : 8 bits
Scan type : Progressive
Bits/(Pixel*Frame) : 0.190
Stream size : 7.14 GiB (94%)
Writing library : x264 core 142 r2431 ac76440
Encoding settings : cabac=1 / ref=4 / deblock=1:-1:-1 / analyse=0x3:0x113 / me=umh / subme=11 / psy=1 / psy_rd=1.00:0.10 / mixed_ref=1 / me_range=24 / chroma_me=1 / trellis=2 / 8x8dct=1 / cqm=0 / deadzone=21,11 / fast_pskip=1 / chroma_qp_offset=-3 / threads=4 / lookahead_threads=1 / sliced_threads=0 / nr=0 / decimate=1 / interlaced=0 / bluray_compat=0 / constrained_intra=0 / bframes=8 / b_pyramid=2 / b_adapt=2 / b_bias=0 / direct=1 / weightb=1 / open_gop=0 / weightp=2 / keyint=230 / keyint_min=22 / scenecut=40 / intra_refresh=0 / rc_lookahead=60 / rc=crf / mbtree=1 / crf=21.0 / qcomp=0.70 / qpmin=0 / qpmax=69 / qpstep=4 / ip_ratio=1.40 / aq=1:1.00
Default : Yes
Forced : No

Audio
ID : 2
Format : AC-3
Format/Info : Audio Coding 3
Mode extension : CM (complete main)
Format settings, Endianness : Big
Codec ID : A_AC3
Duration : 1h 47mn
Bit rate mode : Constant
Bit rate : 448 Kbps
Channel count : 6 channels
Channel positions : Front: L C R, Side: L R, LFE
Sampling rate : 48.0 KHz
Bit depth : 16 bits
Compression mode : Lossy
Stream size : 346 MiB (4%)
Default : Yes
Forced : No

Text #1
ID : 3
Format : UTF-8
Codec ID : S_TEXT/UTF8
Codec ID/Info : UTF-8 Plain Text
Title : Русские
Language : Russian
Default : No
Forced : No

Text #2
ID : 4
Format : UTF-8
Codec ID : S_TEXT/UTF8
Codec ID/Info : UTF-8 Plain Text
Title : Английские
Language : English
Default : No
Forced : No



Релиз от: SuperMin


_________________
Проголосуй за трекер Открытый торрент трекер - RUS-MEDIA.ORG

Проголосуй Открытый торрент трекер - RUS-MEDIA.ORG


Вернуться к началу
 Профиль Отправить личное сообщение  
 
   Похожие торренты   Автор   Торрент   Размер 
В этой теме нет новых непрочитанных сообщений. Битва драконов / Bridge of Dragons [Боевик, приключения, 1999] WEB-DLRip, Mvo

salma3

0 | 0

1.45 ГБ

В этой теме нет новых непрочитанных сообщений. Последний убийца драконов / The Last Dragonslayer [фэнтези, комедия, приключения, 2016] HDTVRip, Mvo

salma3

86 | 21

745.82 МБ

В этой теме нет новых непрочитанных сообщений. Последний убийца драконов / The Last Dragonslayer [фэнтези, комедия, приключения, 2016] HDTVRip, Mvo

salma3

838 | 64

1.37 ГБ

В этой теме нет новых непрочитанных сообщений. Последний убийца драконов / The Last Dragonslayer [Фэнтези, комедия, приключения, 2016] WEB-DLRip, Dvo [LakeFilms]

salma3

0 | 0

1.69 ГБ

В этой теме нет новых непрочитанных сообщений. Последний убийца драконов / The Last Dragonslayer [Фэнтези, комедия, приключения, 2016] WEB-DLRip 720p, Dvo [LakeFilms]

salma3

0 | 0

2.24 ГБ

В этой теме нет новых непрочитанных сообщений. Последний убийца драконов / The Last Dragonslayer [Фэнтези, комедия, приключения, 2016] WEB-DLRip 1080p, Dvo [LakeFilms]

salma3

0 | 0

3.52 ГБ

В этой теме нет новых непрочитанных сообщений. Мумия: Гробница Императора Драконов / The Mummy: Tomb of the Dragon Emperor [фэнтези, боевик, приключения, 2008] WEB-DLRip-AVC, Dub [Open Matte]

salma3

52 | 10

2.14 ГБ


Начать новую тему Ответить на тему  [ 1 сообщение ] 




Для Мосгорсуда, Роскомнадзора и рекламодателей:: mosgorsud-torrent[собачка]yandex.ru
cron