Торрент файл
скачать торрент магнет ссылка Добавлен: 28 апр 2015, 00:35
Размер: 9.7 ГБ
Сидеров: 35
Личеров: 3
Автор

СообщениеДобавлено: 28 апр 2015, 00:35 

В сети
Супермодератор
Аватара пользователя
Дата регистрации:
15 фев 2012, 16:44
Возраст: 28
Спасибо: 6468 / 2129
Сообщения: 40704
Дикая орхидея / Wild Orchid

Русское название: Дикая орхидея
Оригинальное название: Wild Orchid
Год выпуска: 1989
Жанр: драма, мелодрама
Выпущено: США
Режиссер: Залман Кинг / Zalman King
В ролях: Микки Рурк , Жаклин Биссет , Карре Отис , Ассумпта Серна , Брюс Гринвуд , Олег Видов , Милтон Гонсалвис , Дженс Питер , Антониу Мариу Силва да Силва , Пол Лэнд , Майкл Виллелла , Бернардо Яблонски
Перевод: Дублированный, Профессиональный многоголосый, Авторский (одноголосый)


Сюжет фильма:
Поступив на работу в юридическую фирму, Эмилия отправляется в Бразилию помочь завершить крупную сделку с недвижимостью. В Рио-де-Жанейро она встречается с Виллером - загадочным и очень сексуальным миллионером, который, используя свое колдовское очарование, пытается соблазнить невинную красотку.
Под сумасшедшие ритмы и краски карнавала, он распаляет в девушке вулкан неведомых ей ранее чувств и эротических фантазий, так и не решаясь на активные действия. Для него это привычная игра в любовь, но Эмилия не хочет и не может играть, она искренна, и это заставляет Виллера открыть ей свое сердце...



Качество: BDRip 720p
Формат: AVC (библиотека кодирования x.264)
Контейнер (Расширение): MKV
Видео: 1280x694 (16:9), 10686 Кбит/сек, 23,976 кадр/сек, 0,502 Бит/[Пиксели*Кадры]
Аудио №1: русский / AC3 / 2.0 / 48 kHz / 192 kbps / 16 bit |Многоголосый закадровый|
Аудио №2: русский / AC3 / 2.0 / 48 kHz / 192 kbps / 16 bit |Дублированный|
Аудио №3: русский / AC3 / 2.0 / 48 kHz / 448 kbps / 16 bit |Авторский, А.Гаврилов|
Аудио №4: русский / AC3 / 2.0 / 48 kHz / 192 kbps / 16 bit |Многоголосый закадровый, Ren-TV|
Аудио №5: русский / AC3 / 2.0 / 48 kHz / 192 kbps / 16 bit |Авторский, В.Горчаков|
Аудио №6: русский / AC3 / 2.0 / 48 kHz / 192 kbps / 16 bit |Авторский, М.Иванов|
Аудио №7: украинский / AC3 / 2.0 / 48 kHz / 192 kbps / 16 bit |Многоголосый закадровый, ICTV|
Аудио №8: украинский / AC3 / 2.0 / 48 kHz / 192 kbps / 16 bit |Многоголосый закадровый, Inter|
Аудио №9: английский / AC3 / 2.0 / 48 kHz / 448 kbps / 16 bit
Субтитры: русские
Навигация по главам(Чаптеры): есть
Продолжительность: 01:45:15
Автор рипа: Сообщество:

Format : Matroska
Format version : Version 2
File size : 9.70 GiB
Duration : 1h 45mn
Overall bit rate : 13.2 Mbps
Movie name : Dikaja orhideja.(1989).BDRip.720p.[denis100]
Encoded date : UTC 2015-04-27 07:49:02
Writing application : mkvmerge v5.8.0 ('No Sleep / Pillow') built on Sep 2 2012 15:37:04
Writing library : libebml v1.2.3 + libmatroska v1.3.0

Video
ID : 1
Format : AVC
Format/Info : Advanced Video Codec
Format profile : High@L4.1
Format settings, CABAC : Yes
Format settings, ReFrames : 9 frames
Codec ID : V_MPEG4/ISO/AVC
Duration : 1h 45mn
Bit rate : 10.7 Mbps
Width : 1 280 pixels
Height : 694 pixels
Display aspect ratio : 16:9
Frame rate : 23.976 fps
Color space : YUV
Chroma subsampling : 4:2:0
Bit depth : 8 bits
Scan type : Progressive
Bits/(Pixel*Frame) : 0.502
Stream size : 7.86 GiB (81%)
Title : Dikaja orhideja.(1989).BDRip.720p.[denis100]
Writing library : x264 core 146 r2538 121396c
Encoding settings : cabac=1 / ref=9 / deblock=1:-3:-3 / analyse=0x3:0x133 / me=umh / subme=11 / psy=1 / psy_rd=1.00:0.15 / mixed_ref=1 / me_range=48 / chroma_me=1 / trellis=2 / 8x8dct=1 / cqm=0 / deadzone=21,11 / fast_pskip=0 / chroma_qp_offset=-3 / threads=6 / lookahead_threads=1 / sliced_threads=0 / nr=0 / decimate=1 / interlaced=0 / bluray_compat=0 / constrained_intra=0 / bframes=10 / b_pyramid=2 / b_adapt=2 / b_bias=0 / direct=3 / weightb=1 / open_gop=0 / weightp=2 / keyint=240 / keyint_min=23 / scenecut=40 / intra_refresh=0 / rc=crf / mbtree=0 / crf=17.5 / qcomp=0.60 / qpmin=0 / qpmax=69 / qpstep=4 / ip_ratio=1.40 / pb_ratio=1.30 / aq=1:1.00
Language : English
Default : Yes
Forced : No

Audio #1
ID : 2
Format : AC-3
Format/Info : Audio Coding 3
Mode extension : CM (complete main)
Codec ID : A_AC3
Duration : 1h 45mn
Bit rate mode : Constant
Bit rate : 192 Kbps
Channel(s) : 2 channels
Channel positions : Front: L R
Sampling rate : 48.0 KHz
Bit depth : 16 bits
Compression mode : Lossy
Stream size : 145 MiB (1%)
Title : Многоголосый закадровый
Language : Russian
Default : Yes
Forced : No

Audio #2
ID : 3
Format : AC-3
Format/Info : Audio Coding 3
Mode extension : CM (complete main)
Codec ID : A_AC3
Duration : 1h 45mn
Bit rate mode : Constant
Bit rate : 192 Kbps
Channel(s) : 2 channels
Channel positions : Front: L R
Sampling rate : 48.0 KHz
Bit depth : 16 bits
Compression mode : Lossy
Stream size : 145 MiB (1%)
Title : Дублированный
Language : Russian
Default : No
Forced : No

Audio #3
ID : 4
Format : AC-3
Format/Info : Audio Coding 3
Mode extension : CM (complete main)
Codec ID : A_AC3
Duration : 1h 45mn
Bit rate mode : Constant
Bit rate : 448 Kbps
Channel(s) : 2 channels
Channel positions : Front: L R
Sampling rate : 48.0 KHz
Bit depth : 16 bits
Compression mode : Lossy
Stream size : 337 MiB (3%)
Title : Авторский, А.Гаврилов
Language : Russian
Default : No
Forced : No

Audio #4
ID : 5
Format : AC-3
Format/Info : Audio Coding 3
Mode extension : CM (complete main)
Codec ID : A_AC3
Duration : 1h 45mn
Bit rate mode : Constant
Bit rate : 192 Kbps
Channel(s) : 2 channels
Channel positions : Front: L R
Sampling rate : 48.0 KHz
Bit depth : 16 bits
Compression mode : Lossy
Stream size : 145 MiB (1%)
Title : Многоголосый закадровый, Ren-TV
Language : Russian
Default : No
Forced : No

Audio #5
ID : 6
Format : AC-3
Format/Info : Audio Coding 3
Mode extension : CM (complete main)
Codec ID : A_AC3
Duration : 1h 45mn
Bit rate mode : Constant
Bit rate : 192 Kbps
Channel(s) : 2 channels
Channel positions : Front: L R
Sampling rate : 48.0 KHz
Bit depth : 16 bits
Compression mode : Lossy
Stream size : 145 MiB (1%)
Title : Авторский, В.Горчаков
Language : Russian
Default : No
Forced : No

Audio #6
ID : 7
Format : AC-3
Format/Info : Audio Coding 3
Mode extension : CM (complete main)
Codec ID : A_AC3
Duration : 1h 45mn
Bit rate mode : Constant
Bit rate : 192 Kbps
Channel(s) : 2 channels
Channel positions : Front: L R
Sampling rate : 48.0 KHz
Bit depth : 16 bits
Compression mode : Lossy
Stream size : 145 MiB (1%)
Title : Авторский, М.Иванов
Language : Russian
Default : No
Forced : No

Audio #7
ID : 8
Format : AC-3
Format/Info : Audio Coding 3
Mode extension : CM (complete main)
Codec ID : A_AC3
Duration : 1h 45mn
Bit rate mode : Constant
Bit rate : 192 Kbps
Channel(s) : 2 channels
Channel positions : Front: L R
Sampling rate : 48.0 KHz
Bit depth : 16 bits
Compression mode : Lossy
Stream size : 145 MiB (1%)
Title : Многоголосый закадровый, ICTV
Language : Ukrainian
Default : No
Forced : No

Audio #8
ID : 9
Format : AC-3
Format/Info : Audio Coding 3
Mode extension : CM (complete main)
Codec ID : A_AC3
Duration : 1h 45mn
Bit rate mode : Constant
Bit rate : 192 Kbps
Channel(s) : 2 channels
Channel positions : Front: L R
Sampling rate : 48.0 KHz
Bit depth : 16 bits
Compression mode : Lossy
Stream size : 145 MiB (1%)
Title : Многоголосый закадровый, Inter
Language : Ukrainian
Default : No
Forced : No

Audio #9
ID : 10
Format : AC-3
Format/Info : Audio Coding 3
Mode extension : CM (complete main)
Codec ID : A_AC3
Duration : 1h 45mn
Bit rate mode : Constant
Bit rate : 448 Kbps
Channel(s) : 2 channels
Channel positions : Front: L R
Sampling rate : 48.0 KHz
Bit depth : 16 bits
Compression mode : Lossy
Stream size : 337 MiB (3%)
Language : English
Default : No
Forced : No

Text
ID : 11
Format : UTF-8
Codec ID : S_TEXT/UTF8
Codec ID/Info : UTF-8 Plain Text
Language : Russian
Default : No
Forced : No

Menu
00:00:00.000 : en:00:00:00.000
00:14:58.590 : en:00:14:58.590
00:28:47.600 : en:00:28:47.600
00:41:55.950 : en:00:41:55.950
00:59:03.215 : en:00:59:03.215
01:09:50.263 : en:01:09:50.263
01:19:37.001 : en:01:19:37.001
01:31:53.709 : en:01:31:53.709
x264 [info]: frame I:894 Avg QP:17.15 size:123610
x264 [info]: frame P:28352 Avg QP:18.25 size: 80386
x264 [info]: frame B:122171 Avg QP:19.97 size: 51162


_________________
Проголосуй за трекер Открытый торрент трекер - RUS-MEDIA.ORG

Проголосуй Открытый торрент трекер - RUS-MEDIA.ORG



реклама партнёра


Вернуться к началу
 Профиль Отправить личное сообщение  
 
   Похожие торренты   Автор   Торрент   Размер 
В этой теме нет новых непрочитанных сообщений. Дикая орхидея / Wild Orchid [Мелодрама, драма, 1989] BDRip 1080p, Dub+Mvo+Avo+Sub

salma3

72 | 1

7.59 ГБ

В этой теме нет новых непрочитанных сообщений. Дикая орхидея / Wild Orchid [Мелодрама, драма, 1989] Blu-Ray Remux 1080p, Dub+Mvo+Avo+Sub

salma3

4 | 4

24.43 ГБ

В этой теме нет новых непрочитанных сообщений. Дикая орхидея 2: Два оттенка грусти / Wild Orchid II: Two Shades of Blue [драма, мелодрама, 1991] WEBRip 1080p, Mvo

salma3

202 | 117

8.36 ГБ

В этой теме нет новых непрочитанных сообщений. Дикая / Wild (Жан-Марк Валле) [2014, Драма, биография, BDRip 720p] Sub

Nickolas3435

109 | 6

3.34 ГБ

В этой теме нет новых непрочитанных сообщений. Дикая / Wild (Жан-Марк Валле) [Драма, биография, 2014] BDRip 720p, dvo+sub

Dracon

169 | 4

6.19 ГБ

В этой теме нет новых непрочитанных сообщений. Дикая / Wild (Жан-Марк Валле) [Драма, биография, 2014] BDRip 720p, Dub+Sub [Лицензия]

Dracon

1012 | 35

5.72 ГБ

В этой теме нет новых непрочитанных сообщений. Дикая штучка / Something Wild [комедия, 1986] BDRip 720p, Dvo+Avo+Sub

salma3

69 | 22

4.74 ГБ


Начать новую тему Ответить на тему  [ 1 сообщение ] 




Для Мосгорсуда, Роскомнадзора и рекламодателей:: mosgorsud-torrent[собачка]yandex.ru