Торрент файл
скачать торрент магнет ссылка Добавлен: 28 апр 2015, 00:30
Размер: 5.38 ГБ
Сидеров: 54
Личеров: 3
Автор

СообщениеДобавлено: 28 апр 2015, 00:30 

Не в сети
Супермодератор
Аватара пользователя
Дата регистрации:
15 фев 2012, 16:44
Возраст: 28
Спасибо: 6928 / 2147
Сообщения: 52986
Название: Битва Титанов
Оригинальное название: Clash of the titans
Год выпуска: 1981
Страна: США
Жанр: фэнтези, приключения
Продолжительность: 01:57:56
Перевод: Дублированный, профессиональный многоголосый

Режиссёр: Десмонд Дэвис

В ролях: Лоуренс Оливье, Гарри Хэмлин, Джуди Боукер, Бёрджесс Мередит, Шан Филлипс, Мэгги Смит, Урсула Андресс, Клер Блум, Флора Робсон

Описание: Персей - смертный сын Зевса, пытаясь спасти свою возлюбленную Андромеду от жестокого заклятия, сражается с чудовищами. К счастью, у Персея есть свои волшебные помощники: прекрасный крылатый конь и удивительно мудрая сова. Но даже эти волшебные силы не всегда в силах помочь герою в борьбе с могущественными врагами и спасти свою любимую...



Качество: BDRip 720p Сравнение с исходником
Формат: MKV
Видео: MPEG-4 AVC, 5447 Кбит/с, 1272х720, 23,976 кадра/с
Аудио 1: русский, AC3, 448 kbps, 4 ch, 48 kHz [дублированный]
Аудио 2: русский, AC3, 192 kbps, 2 ch, 48 kHz [профессиональный многоголосый]
Аудио 3: английский, AC3, 192 kbps, 2 ch, 48 kHz [оригинал]
Субтитры: английские (для слабослышащих)

Сатурн, 1982 год
Победитель (1):
Лучший актер второго плана (Бёрджесс Мередит)

Номинации (5):
Лучший фэнтези-фильм
Лучшая актриса второго плана (Мэгги Смит)
Лучшие костюмы
Лучшие спецэффекты
Лучшая музыка
frame I:1203 Avg QP:23.28 size: 92331
frame P:26352 Avg QP:24.13 size: 50940
frame B:142102 Avg QP:26.25 size: 24469
Общее
Уникальный идентификатор : 251587851993401712616354408726222789003 (0xBD460ECAA8727E509E720E43A66ED98B)
Полное имя : D:VideoБитва Титанов.1981.BDRip.720p.mkv
Формат : Matroska
Версия формата : Version 4 / Version 2
Размер файла : 5,38 Гбайт
Продолжительность : 1 ч. 57 м.
Общий поток : 6537 Кбит/сек
Название фильма : BDRip -- STarankov
Дата кодирования : UTC 2015-04-27 13:39:20
Программа кодирования : mkvmerge v7.8.0 ('River Man') 64bit built on Mar 27 2015 16:31:37
Библиотека кодирования : libebml v1.3.1 + libmatroska v1.4.2
_STATISTICS_WRITING_APP : mkvmerge v7.8.0 ('River Man') 64bit built on Mar 27 2015 16:31:37
_STATISTICS_WRITING_DATE_UTC : 2015-04-27 13:39:20
_STATISTICS_TAGS : BPS DURATION NUMBER_OF_FRAMES NUMBER_OF_BYTES
DURATION : 01:57:39.384000000
NUMBER_OF_FRAMES : 707
NUMBER_OF_BYTES : 24139

Видео
Идентификатор : 1
Формат : AVC
Формат/Информация : Advanced Video Codec
Профиль формата : High@L4.1
Параметр CABAC формата : Да
Параметр ReFrames формата : 9 кадров
Идентификатор кодека : V_MPEG4/ISO/AVC
Продолжительность : 1 ч. 57 м.
Битрейт : 5447 Кбит/сек
Ширина : 1272 пикселя
Высота : 720 пикселей
Соотношение сторон : 16:9
Режим частоты кадров : Постоянный
Частота кадров : 23,976 кадра/сек
Цветовое пространство : YUV
Субдискретизация насыщенности : 4:2:0
Битовая глубина : 8 бит
Тип развёртки : Прогрессивная
Бит/(Пиксели*Кадры) : 0.248
Размер потока : 4,49 Гбайт (83%)
Библиотека кодирования : x264 core 146 r2538 121396c
Настройки программы : cabac=1 / ref=9 / deblock=1:-3:-3 / analyse=0x3:0x113 / me=umh / subme=10 / psy=1 / psy_rd=1.00:0.15 / mixed_ref=1 / me_range=32 / chroma_me=1 / trellis=2 / 8x8dct=1 / cqm=0 / deadzone=21,11 / fast_pskip=1 / chroma_qp_offset=-3 / threads=6 / lookahead_threads=1 / sliced_threads=0 / nr=0 / decimate=1 / interlaced=0 / bluray_compat=0 / constrained_intra=0 / bframes=14 / b_pyramid=2 / b_adapt=2 / b_bias=0 / direct=1 / weightb=1 / open_gop=0 / weightp=2 / keyint=230 / keyint_min=23 / scenecut=40 / intra_refresh=0 / rc_lookahead=40 / rc=crf / mbtree=0 / crf=22.0 / qcomp=0.60 / qpmin=0 / qpmax=69 / qpstep=4 / vbv_maxrate=40000 / vbv_bufsize=50000 / crf_max=0.0 / nal_hrd=none / filler=0 / ip_ratio=1.40 / pb_ratio=1.30 / aq=1:1.00
Язык : English
Default : Да
Forced : Нет
DURATION : 01:57:56.111000000
NUMBER_OF_FRAMES : 169657
NUMBER_OF_BYTES : 4930544275
_STATISTICS_WRITING_APP : mkvmerge v7.8.0 ('River Man') 64bit built on Mar 27 2015 16:31:37
_STATISTICS_WRITING_DATE_UTC : 2015-04-27 13:39:20
_STATISTICS_TAGS : BPS DURATION NUMBER_OF_FRAMES NUMBER_OF_BYTES

Аудио #1
Идентификатор : 2
Формат : AC-3
Формат/Информация : Audio Coding 3
Расширение режима : CM (complete main)
Параметр Endianness формата : Big
Идентификатор кодека : A_AC3
Продолжительность : 1 ч. 57 м.
Вид битрейта : Постоянный
Битрейт : 448 Кбит/сек
Каналы : 4 канала
Расположение каналов : Front: L C R, Back: C
Частота : 48,0 КГц
Битовая глубина : 16 бит
Метод сжатия : С потерями
Размер потока : 378 Мбайт (7%)
Заголовок : DUB
Язык : Russian
Default : Да
Forced : Нет

Аудио #2
Идентификатор : 3
Формат : AC-3
Формат/Информация : Audio Coding 3
Расширение режима : CM (complete main)
Параметр Endianness формата : Big
Идентификатор кодека : A_AC3
Продолжительность : 1 ч. 57 м.
Вид битрейта : Постоянный
Битрейт : 320 Кбит/сек
Каналы : 2 канала
Расположение каналов : Front: L R
Частота : 48,0 КГц
Битовая глубина : 16 бит
Метод сжатия : С потерями
Размер потока : 270 Мбайт (5%)
Заголовок : MVO
Язык : Russian
Default : Нет
Forced : Нет

Аудио #3
Идентификатор : 4
Формат : AC-3
Формат/Информация : Audio Coding 3
Расширение режима : CM (complete main)
Параметр Endianness формата : Big
Идентификатор кодека : A_AC3
Продолжительность : 1 ч. 57 м.
Вид битрейта : Постоянный
Битрейт : 192 Кбит/сек
Каналы : 2 канала
Расположение каналов : Front: L R
Частота : 48,0 КГц
Битовая глубина : 16 бит
Метод сжатия : С потерями
Размер потока : 162 Мбайт (3%)
Заголовок : Original
Язык : English
Default : Нет
Forced : Нет

Текст
Идентификатор : 5
Формат : UTF-8
Идентификатор кодека : S_TEXT/UTF8
Идентификатор кодека/Информация : UTF-8 Plain Text
Заголовок : английские (для слабослышащих)
Язык : English
Default : Нет
Forced : Нет



_________________
Проголосуй за трекер Открытый торрент трекер - RUS-MEDIA.ORG

Проголосуй Открытый торрент трекер - RUS-MEDIA.ORG



реклама партнёра


Вернуться к началу
 Профиль Отправить личное сообщение  
 
   Похожие торренты   Автор   Торрент   Размер 
В этой теме нет новых непрочитанных сообщений. Битва Титанов / Clash of the Titans [фэнтези, боевик, приключения, 2010] BDRip 720p, Dub [Лицензия]

salma3

3 | 35

4.37 ГБ

В этой теме нет новых непрочитанных сообщений. Битва Титанов / Clash of the Titans [фэнтези, боевик, приключения, 2010] BDRip 1080p, Dub

salma3

2 | 10

7.75 ГБ

В этой теме нет новых непрочитанных сообщений. Битва Титанов / Clash of the Titans [Фэнтези, боевик, приключения, 2010] HDRip, Dub

salma3

5 | 0

747.74 МБ

В этой теме нет новых непрочитанных сообщений. Ловчий смерти 2: Битва титанов / Deathstalker II [Фэнтези, комедия, приключения, 1987] BDRip 1080p, Dvo+Avo

salma3

78 | 22

7.88 ГБ

В этой теме нет новых непрочитанных сообщений. Ловчий смерти 2: Битва титанов / Deathstalker II [Фэнтези, Боевик, Приключения, Комедия, 1987] HDRip-AVC, Dvo+Avo

salma3

57 | 13

2.19 ГБ

В этой теме нет новых непрочитанных сообщений. Хоббит: Битва пяти воинств / The Hobbit: The Battle of the Five Armies (Питер Джексон) [Фэнтези, Приключения, 2014] BDRip 720p, Dub+Sub [Лицензия]

Dracon

83 | 9

9.2 ГБ

В этой теме нет новых непрочитанных сообщений. Атака Титанов. Фильм первый: Жестокий мир / Shingeki no kyojin: Attack on Titan (Синдзи Хигути ) [фэнтези, боевик, драма, приключения, 2015] WEB-DL 720p, Dub [iTunes]

Dracon

8396 | 526

2.79 ГБ


Начать новую тему Ответить на тему  [ 1 сообщение ] 




Для Мосгорсуда, Роскомнадзора и рекламодателей:: mosgorsud-torrent[собачка]yandex.ru
cron