Торрент файл
скачать торрент магнет ссылка Добавлен: 16 апр 2015, 16:21
Размер: 6.61 ГБ
Сидеров: 5
Личеров: 3
Автор

СообщениеДобавлено: 16 апр 2015, 16:21 

Не в сети
Аватара пользователя
Дата регистрации:
11 апр 2015, 21:42
Спасибо: 17 / 0
Сообщения: 36
Год выхода: 2014
Жанр: Боевик,Драма,Биография
Режиссер: Сянь-ян Чоу
В ролях: Саммо Кам-Бо Хунг, Эдди Пэн, Анджела Бейби, Луодин Ван, Цзин Божань, Чо-Лам Вонг, Цзинь Чжан, Куин Жунжи, Байрон Манн

О фильме:
Фильм повествует о великом мастере боевых искусств и китайской медицины Вон Фэйхуне. Он жил в Китае, в эпоху династии Цин. Вон Фэйхун и прославился на весь Китай как «Робин Гуд XX века». О нем снято более 80-ти фильмов, самые знаменитые из которых: "Пьяный мастер" и "Пьяный мастер 2", где Вон Фэйхуна сыграл Джеки Чан, а так же "Однажды в Китае" и "Железный петух против сколопендры", где роль мастера исполнил Джет Ли.
Этот фильм рассказывает о самом начале пути Вон Фэйхуна. Его, молодого и смелого бойца, замечает главарь одной из двух крупнейших банд, контролирующих власть в провинции ГуанДун. Босс предлагает юноше вступить в его банду, однако, он не знает, что этим лишь помогает Вон Фэйхуну осуществить свой план. Много лет назад членами этой банды был убит отец мастера, и он поклялся во что бы то ни стало отомстить.

Качество: BDRip [720p]
Видео: x264, 1280x538, 24кадр/с, ~ 5.5 Мбит/с
Аудио: MP3, 44100 Hz, 2 канала, 192kbit/s Русский
Аудио: DTS, 48000 Hz, 6 каналов, 1 509 kbit/s Китайский
Продолжительность: 02:11:27
Перевод: Любительский (двухголосый)Ольга Гринтиева и Дмитрий Познанский
Субтитры: Английские
Примечание: Сохранены оригинальные чаптеры

Общее
Уникальный идентификатор                 : 185982687872054172919367395214097548236 (0x8BEAF67829B8526791418C039DF283CC)
Полное имя                               : DC++ (закачка)Rise.Of.The.Legend.2014.720p.BluRay.x264.DTS.mkv
Формат                                   : Matroska
Версия формата                           : Version 4 / Version 2
Размер файла                             : 6,61 Гбайт
Продолжительность                        : 2 ч. 11 м.
Общий поток                              : 7197 Кбит/сек
Название фильма                          :Rise.Of.The.Legend.2014.720p.BluRay.x264.DTS
Дата кодирования                         : UTC 2015-04-16 08:18:11
Программа кодирования                    : mkvmerge v7.8.0 ('River Man') 32bit built on Mar 27 2015 16:18:02
Библиотека кодирования                   : libebml v1.3.1 + libmatroska v1.4.2
DURATION                                 : 02:11:26.942000000
NUMBER_OF_FRAMES                         : 301922
NUMBER_OF_BYTES                          : 189286608
_STATISTICS_WRITING_APP                  : mkvmerge v7.8.0 ('River Man') 32bit built on Mar 27 2015 16:18:02
_STATISTICS_WRITING_DATE_UTC             : 2015-04-16 08:18:11
_STATISTICS_TAGS                         : BPS DURATION NUMBER_OF_FRAMES NUMBER_OF_BYTES

Видео
Идентификатор                            : 1
Формат                                   : AVC
Формат/Информация                        : Advanced Video Codec
Профиль формата                          : High@L4.1
Параметр CABAC формата                   : Да
Параметр ReFrames формата                : 4 кадра
Идентификатор кодека                     : V_MPEG4/ISO/AVC
Продолжительность                        : 2 ч. 11 м.
Битрейт                                  : 5500 Кбит/сек
Ширина                                   : 1280 пикселей
Высота                                   : 538 пикселей
Соотношение сторон                       : 2,40:1
Соотношение сторон в оригинале           : 2,40:1
Режим частоты кадров                     : Постоянный
Частота кадров                           : 24,000 кадра/сек
Цветовое пространство                    : YUV
Субдискретизация насыщенности            : 4:2:0
Битовая глубина                          : 8 бит
Тип развёртки                            : Прогрессивная
Бит/(Пиксели*Кадры)                      : 0.333
Размер потока                            : 4,91 Гбайт (74%)
Библиотека кодирования                   : x264 core 142 r2495 6a301b6
Настройки программы                      : cabac=1 / ref=4 / deblock=1:-2:-2 / analyse=0x3:0x113 / me=umh / subme=7 / psy=1 / psy_rd=1.00:0.15 / mixed_ref=1 / me_range=16 / chroma_me=1 / trellis=1 / 8x8dct=1 / cqm=0 / deadzone=21,11 / fast_pskip=1 / chroma_qp_offset=-3 / threads=12 / lookahead_threads=3 / sliced_threads=0 / nr=0 / decimate=1 / interlaced=0 / bluray_compat=0 / constrained_intra=0 / bframes=3 / b_pyramid=2 / b_adapt=2 / b_bias=0 / direct=3 / weightb=1 / open_gop=0 / weightp=2 / keyint=250 / keyint_min=25 / scenecut=40 / intra_refresh=0 / rc_lookahead=50 / rc=abr / mbtree=1 / bitrate=5500 / ratetol=1.0 / qcomp=0.60 / qpmin=0 / qpmax=69 / qpstep=4 / vbv_maxrate=31250 / vbv_bufsize=31250 / nal_hrd=none / filler=0 / ip_ratio=1.40 / aq=1:1.00
Язык                                     : Chinese
Default                                  : Да
Forced                                   : Нет

Аудио #1
Идентификатор                            : 2
Формат                                   : MPEG Audio
Версия формата                           : Version 1
Профиль формата                          : Layer 3
Идентификатор кодека                     : A_MPEG/L3
Идентификатор кодека/Подсказка           : MP3
Продолжительность                        : 2 ч. 11 м.
Вид битрейта                             : Постоянный
Битрейт                                  : 192 Кбит/сек
Каналы                                   : 2 канала
Частота                                  : 44,1 КГц
Метод сжатия                             : С потерями
Размер потока                            : 181 Мбайт (3%)
Библиотека кодирования                   : LAME3.99r
Настройки программы                      : -m s -V 4 -q 0 -lowpass 18.6 -b 192
Язык                                     : Russian
Default                                  : Да
Forced                                   : Да

Аудио #2
Идентификатор                            : 3
Формат                                   : DTS
Формат/Информация                        : Digital Theater Systems
Режим                                    : 16
Параметр Endianness формата              : Big
Идентификатор кодека                     : A_DTS
Продолжительность                        : 2 ч. 11 м.
Вид битрейта                             : Постоянный
Битрейт                                  : 1509 Кбит/сек
Каналы                                   : 6 каналов
Расположение каналов                     : Front: L C R, Side: L R, LFE
Частота                                  : 48,0 КГц
Битовая глубина                          : 24 бит
Метод сжатия                             : С потерями
Размер потока                            : 1,39 Гбайт (21%)
Язык                                     : Chinese
Default                                  : Нет
Forced                                   : Нет

Текст
Идентификатор                            : 4
Формат                                   : UTF-8
Идентификатор кодека                     : S_TEXT/UTF8
Идентификатор кодека/Информация          : UTF-8 Plain Text
Заголовок                                : English
Язык                                     : English
Default                                  : Да
Forced                                   : Да

Меню
00:00:00.000                             : en:Chapter 01
00:10:11.666                             : en:Chapter 02
00:23:25.833                             : en:Chapter 03
00:38:03.375                             : en:Chapter 04
00:51:26.625                             : en:Chapter 05
01:01:07.666                             : en:Chapter 06
01:16:56.416                             : en:Chapter 07
01:32:26.375                             : en:Chapter 08
01:54:09.791                             : en:Chapter 09
02:06:16.666                             : en:Chapter 10








Вернуться к началу
 Профиль Отправить личное сообщение  
 
   Похожие торренты   Автор   Торрент   Размер 
В этой теме нет новых непрочитанных сообщений. Легенды / Legends [S01-02] (Дэвид Семел, Брэд Тернер, Джон Беринг) [2014-2015, Боевик, Детектив, Драма, Криминал, WEB-DL 720p | BaibaKo]

Nickolas3434

39 | 26

28.26 ГБ

В этой теме нет новых непрочитанных сообщений. Нобл / Noble [Драма, биография, 2014] BDRip 720p, dvo+sub

Dracon

124 | 36

4.45 ГБ

В этой теме нет новых непрочитанных сообщений. Снайпер / American Sniper [боевик, драма, военный, биография, 2014] BDRip-AVC, Dub

salma3

81 | 44

2.91 ГБ

В этой теме нет новых непрочитанных сообщений. Ип Ман 3D / Yip Man 3 [боевик, драма, биография, история, 2015] BDRip 720p, Mvo

salma3

1277 | 74

4.46 ГБ

В этой теме нет новых непрочитанных сообщений. Танцующий в пустыне / Desert Dancer (Ричард Рэймонд) [Драма, биография, 2014] BDRip 720p, dvo+sub

Dracon

166 | 35

5.13 ГБ

В этой теме нет новых непрочитанных сообщений. Жертвуя пешкой / Pawn Sacrifice (Эдвард Цвик) [драма, биография, 2014] BDRip 720p, Dub [Itunes]

Dracon

3400 | 224

7.39 ГБ

В этой теме нет новых непрочитанных сообщений. Любовь и милосердие / Love & Mercy (Уильям Полад) [драма, биография, музыка, 2014] BDRip 720p, Dub

Dracon

2 | 0

5.62 ГБ


Начать новую тему Ответить на тему  [ 1 сообщение ] 




Для Мосгорсуда, Роскомнадзора и рекламодателей:: mosgorsud-torrent[собачка]yandex.ru
cron