Торрент файл
скачать торрент магнет ссылка Добавлен: 12 апр 2015, 11:46
Размер: 5.72 ГБ
Сидеров: 27
Личеров: 6
Автор

СообщениеДобавлено: 12 апр 2015, 11:46 

Не в сети
Супермодератор
Аватара пользователя
Дата регистрации:
15 фев 2012, 16:44
Возраст: 28
Спасибо: 6643 / 2146
Сообщения: 45801
Год выхода: 2000
Жанр: фантастика, триллер, драма, криминал
Режиссер: Тарсем Сингх /Tarsem Singh/
В ролях: Дженнифер Лопез /Jennifer Lopez/, Винс Вон /Vince Vaughn/, Винсент Д’Онофрио /Vincent D'Onofrio/, Марианн Жан-Батист /Marianne Jean-Baptiste/, Джейк Уэбер /Jake Weber/, Дилан Бейкер /Dylan Baker/, Колтон Джеймс /Colton James/, Джерри Бекер /Gerry Becker/, Мусетта Вандер /Musetta Vander/, Патрик Бошо /Patrick Bauchau/

О фильме:
Главная героиня фильма, психиатр, проникает в сознание серийного убийцы, находящегося в коме. На его счету уже почти десяток жертв, а жертвами, как правило, становятся молодые привлекательные девушки, которых маньяк истязает самым нечеловеческим образом, прежде чем лишить их жизни.

Последнюю похищенную им девушку пока так и не нашли, но есть надежда, что ее еще можно спасти. Однако для этого сначала надо внедриться в темные мозги психопата и выяснить, где же находится страшная камера пыток.



Страна: США, Германия
Студия: @ radical media / Avery Pix / Caro-McLeod / Katira Productions GmbH & Co. KG / New Line Cinema
Продолжительность: 01:47:10
Перевод:
Профессиональный (дублированный) - студия "Нева-1"
Профессиональный (многоголосый, закадровый) - R5 - CP Digital
Профессиональный (двухголосый, закадровый) - DDV
Авторский (одноголосый, закадровый) - Юрий Живов

Рип от DON!

Файл
Кодек: H.264
Качество: BDRip 720p
Видео: 1280x534 at 23.976 fps, x264@L4.1, 2pass, ~4303 Kbps avg
Аудио#1: Russian: 48 kHz, AC3, 3/2 (L,C,R,l,r) + LFE ch, ~384.00 kbps avg |Дублированный, студия "Нева-1"|
Аудио#2: Russian: 48 kHz, AC3, 3/2 (L,C,R,l,r) + LFE ch, ~448.00 kbps avg |Многоголосый закадровый, R5 - CP Digital|
Аудио#3: Russian: 48 kHz, AC3, 3/2 (L,C,R,l,r) + LFE ch, ~448.00 kbps avg |Двухголосый закадровый, DDV|
Аудио#4: Russian: 48 kHz, AC3, 3/2 (L,C,R,l,r) + LFE ch, ~448.00 kbps avg |Одноголосый закадровый, Юрий Живов|
Аудио#5: English: 48 kHz, DTS, 3/2 (L,C,R,l,r) + LFE ch, ~1509.00 kbps avg |Оригинал|
Аудио#6: English: 48 kHz, AC3, 2/0 (L,R) ch, ~96.00 kbps avg |Комментарии, Тарсем Сингх|
Субтитры: Russian (Forced, 4 x Full - по дубляжу, R5, Urbachs, Bound), English (Full)

General
Complete name : The.Cell.2000.720p.BluRay.4xRus.Eng.DON.mkv
Format : Matroska
Format version : Version 4 / Version 2
File size : 5.72 GiB
Duration : 1h 47mn
Overall bit rate : 7 639 Kbps
Movie name : The Cell (2000)
Encoded date : UTC 2015-04-11 16:58:11
Writing application : mkvmerge v7.8.0 ('River Man') 64bit built on Mar 27 2015 16:31:37
Writing library : libebml v1.3.1 + libmatroska v1.4.2
Attachements : cover.jpg

Video
ID : 1
Format : AVC
Format/Info : Advanced Video Codec
Format profile : High@L4.1
Format settings, CABAC : Yes
Format settings, ReFrames : 6 frames
Format settings, GOP : N=1
Codec ID : V_MPEG4/ISO/AVC
Duration : 1h 47mn
Bit rate : 4 303 Kbps
Width : 1 280 pixels
Height : 534 pixels
Display aspect ratio : 2.40:1
Frame rate mode : Constant
Frame rate : 23.976 fps
Color space : YUV
Chroma subsampling : 4:2:0
Bit depth : 8 bits
Scan type : Progressive
Bits/(Pixel*Frame) : 0.263
Stream size : 3.11 GiB (54%)
Title : The Cell (2000)
Writing library : x264 core 68 r1195M 5d75a9b
Encoding settings : cabac=1 / ref=6 / deblock=1:-3:-3 / analyse=0x3:0x113 / me=umh / subme=10 / psy_rd=1.1:0.0 / mixed_ref=1 / me_range=64 / chroma_me=1 / trellis=2 / 8x8dct=1 / cqm=0 / deadzone=21,11 / chroma_qp_offset=-2 / threads=6 / nr=0 / decimate=1 / mbaff=0 / bframes=8 / b_pyramid=1 / b_adapt=2 / b_bias=0 / direct=3 / wpredb=1 / keyint=250 / keyint_min=25 / scenecut=40 / rc=2pass / bitrate=4303 / ratetol=1.0 / qcomp=0.60 / qpmin=10 / qpmax=51 / qpstep=4 / cplxblur=20.0 / qblur=0.5 / ip_ratio=1.40 / pb_ratio=1.30 / aq=1:0.80
Language : English
Default : Yes
Forced : No

Audio #1
ID : 2
Format : AC-3
Format/Info : Audio Coding 3
Mode extension : CM (complete main)
Format settings, Endianness : Big
Codec ID : A_AC3
Duration : 1h 47mn
Bit rate mode : Constant
Bit rate : 384 Kbps
Channel(s) : 6 channels
Channel positions : Front: L C R, Side: L R, LFE
Sampling rate : 48.0 KHz
Bit depth : 16 bits
Compression mode : Lossy
Stream size : 294 MiB (5%)
Title : AC3 5.1 ch @ 384 kbps - DUB (студия "Нева-1")
Language : Russian
Default : Yes
Forced : No

Audio #2
ID : 3
Format : AC-3
Format/Info : Audio Coding 3
Mode extension : CM (complete main)
Format settings, Endianness : Big
Codec ID : A_AC3
Duration : 1h 47mn
Bit rate mode : Constant
Bit rate : 448 Kbps
Channel(s) : 6 channels
Channel positions : Front: L C R, Side: L R, LFE
Sampling rate : 48.0 KHz
Bit depth : 16 bits
Compression mode : Lossy
Stream size : 343 MiB (6%)
Title : AC3 5.1 ch @ 448 kbps - MVO (R5 - CP Digital)
Language : Russian
Default : No
Forced : No

Audio #3
ID : 4
Format : AC-3
Format/Info : Audio Coding 3
Mode extension : CM (complete main)
Format settings, Endianness : Big
Codec ID : A_AC3
Duration : 1h 47mn
Bit rate mode : Constant
Bit rate : 448 Kbps
Channel(s) : 6 channels
Channel positions : Front: L C R, Side: L R, LFE
Sampling rate : 48.0 KHz
Bit depth : 16 bits
Compression mode : Lossy
Stream size : 343 MiB (6%)
Title : AC3 5.1 ch @ 448 kbps - DVO (DDV)
Language : Russian
Default : No
Forced : No

Audio #4
ID : 5
Format : AC-3
Format/Info : Audio Coding 3
Mode extension : CM (complete main)
Format settings, Endianness : Big
Codec ID : A_AC3
Duration : 1h 47mn
Bit rate mode : Constant
Bit rate : 448 Kbps
Channel(s) : 6 channels
Channel positions : Front: L C R, Side: L R, LFE
Sampling rate : 48.0 KHz
Bit depth : 16 bits
Compression mode : Lossy
Stream size : 343 MiB (6%)
Title : AC3 5.1 ch @ 448 kbps - AVO (Ю. Живов)
Language : Russian
Default : No
Forced : No

Audio #5
ID : 6
Format : DTS
Format/Info : Digital Theater Systems
Mode : 16
Format settings, Endianness : Big
Codec ID : A_DTS
Duration : 1h 47mn
Bit rate mode : Constant
Bit rate : 1 509 Kbps
Channel(s) : 6 channels
Channel positions : Front: L C R, Side: L R, LFE
Sampling rate : 48.0 KHz
Bit depth : 24 bits
Compression mode : Lossy
Stream size : 1.13 GiB (20%)
Title : DTS 5.1 ch @ 1509 kbps - Original
Language : English
Default : No
Forced : No

Audio #6
ID : 7
Format : AC-3
Format/Info : Audio Coding 3
Mode extension : CM (complete main)
Format settings, Endianness : Big
Codec ID : A_AC3
Duration : 1h 47mn
Bit rate mode : Constant
Bit rate : 96.0 Kbps
Channel(s) : 2 channels
Channel positions : Front: L R
Sampling rate : 48.0 KHz
Bit depth : 16 bits
Compression mode : Lossy
Stream size : 73.6 MiB (1%)
Title : AC3 2.0 ch @ 96 kbps - Commentary by Tarsem Singh
Language : English
Default : No
Forced : No

Text #1
ID : 8
Format : UTF-8
Codec ID : S_TEXT/UTF8
Codec ID/Info : UTF-8 Plain Text
Title : Forced
Language : Russian
Default : Yes
Forced : No

Text #2
ID : 9
Format : UTF-8
Codec ID : S_TEXT/UTF8
Codec ID/Info : UTF-8 Plain Text
Title : Full - по дубляжу
Language : Russian
Default : No
Forced : No

Text #3
ID : 10
Format : UTF-8
Codec ID : S_TEXT/UTF8
Codec ID/Info : UTF-8 Plain Text
Title : Full - R5
Language : Russian
Default : No
Forced : No

Text #4
ID : 11
Format : UTF-8
Codec ID : S_TEXT/UTF8
Codec ID/Info : UTF-8 Plain Text
Title : Full - Urbachs
Language : Russian
Default : No
Forced : No

Text #5
ID : 12
Format : UTF-8
Codec ID : S_TEXT/UTF8
Codec ID/Info : UTF-8 Plain Text
Title : Full - Bound
Language : Russian
Default : No
Forced : No

Text #6
ID : 13
Format : UTF-8
Codec ID : S_TEXT/UTF8
Codec ID/Info : UTF-8 Plain Text
Title : Full
Language : English
Default : No
Forced : No

Menu
00:00:00.000 : ru:Вступительные титры
00:06:40.233 : ru:Эдвард
00:12:44.764 : ru:Кукла
00:18:29.108 : ru:Новая жертва
00:26:28.587 : ru:Захват
00:34:32.904 : ru:Найти девушку
00:40:10.325 : ru:В его мире
00:47:55.873 : ru:Вера и реальность
00:56:04.736 : ru:Второй сеанс
01:01:30.687 : ru:Моя первая
01:07:47.063 : ru:На помощь
01:14:23.459 : ru:В ловушке
01:21:51.532 : ru:Я знаю где она
01:26:14.169 : ru:Спасение
01:32:09.733 : ru:Заключение
01:42:34.148 : ru:Финальные титры
ЦитатаКто-то писал:
Сохранены и подписаны оригинальные главы как на Blu-ray.
В субтитрах Bound присутствует ненормативная лексика.
За работу над дорожками спасибо MaLLIeHbKa.
[*] За субтитры спасибо MaLLIeHbKa и subsvin2.


_________________
Проголосуй за трекер Открытый торрент трекер - RUS-MEDIA.ORG

Проголосуй Открытый торрент трекер - RUS-MEDIA.ORG



реклама партнёра


Вернуться к началу
 Профиль Отправить личное сообщение  
 
   Похожие торренты   Автор   Торрент   Размер 
В этой теме нет новых непрочитанных сообщений. Клетка / The Cell [Ужасы, фантастика, фэнтези, триллер, криминал, 2000] BDRip 1080p, Dub+2Mvo+Avo+Sub

salma3

119 | 13

8.85 ГБ

В этой теме нет новых непрочитанных сообщений. Клетка / The Cell [ужасы, фантастика, триллер, 2000] BDRip 720p, Dub [iPad]

salma3

13 | 1

2.27 ГБ

В этой теме нет новых непрочитанных сообщений. 15 минут славы / 15 Minutes [боевик, триллер, драма, криминал, 2001] BDRip 720p, Dub+2Mvo+Dvo+Sub

salma3

109 | 11

5.76 ГБ

В этой теме нет новых непрочитанных сообщений. Игры патриотов / Patriot Games [боевик, триллер, драма, криминал, 1992] BDRip 720p, 2Mvo+Avo+Dvo

salma3

23 | 6

11.71 ГБ

В этой теме нет новых непрочитанных сообщений. Человек, который плакал / The Man Who Cried [драма, мелодрама, военный, музыка, 2000] BDRip 720p, 2Mvo+Avo+Sub

salma3

20 | 5

5.57 ГБ

В этой теме нет новых непрочитанных сообщений. Выкуп / Ransom [триллер, криминал, 1996] BDRip 720p, Dub+2Mvo+Sub

salma3

95 | 10

4.37 ГБ

В этой теме нет новых непрочитанных сообщений. Адвокат для убийцы / Criminal Law [триллер, криминал. 1988] BDRip 720p, 2Mvo+Dvo+Sub

salma3

16 | 3

8.57 ГБ


Начать новую тему Ответить на тему  [ 1 сообщение ] 




Для Мосгорсуда, Роскомнадзора и рекламодателей:: mosgorsud-torrent[собачка]yandex.ru