Торрент файл
скачать торрент магнет ссылка Добавлен: 08 апр 2015, 20:25
Размер: 5.77 ГБ
Сидеров: 11
Личеров: 4
Автор

СообщениеДобавлено: 08 апр 2015, 20:25 

В сети
Супермодератор
Аватара пользователя
Дата регистрации:
15 фев 2012, 16:44
Возраст: 28
Спасибо: 7165 / 2147
Сообщения: 62296
Год выхода: 1997
Жанр: мелодрама, комедия
Режиссер: П.Дж. Хоган

В ролях: Джулия Робертс, Дермот Малруни, Кэмерон Диаз, Руперт Эверетт, Филип Боско, М. Эммет Уолш, Рэйчел Гриффитс, Кэрри Престон, Сьюзэн Салливан, Кристофер Мастерсон

О фильме: 9 лет назад Джулианна Поттер и Майкл О`Нил заключили соглашение: если до 28 лет они не влюбятся, то поженятся между собой. Лучшие друзья еще со студенческих времен, они почти позабыли о своем юношеском договоре.

И теперь, в 28 лет, Майкл снова поднял вопрос о свадьбе, но… уже с другой. Джулианна никогда не знала, что же ей действительно нужно, пока не почувствовала, что это «что-то» уходит из ее жизни.

И теперь у нее есть только четыре дня и собственная смекалка, чтобы вернуть Майкла себе.



Выпущено: Sony Pictures, TriStar Pictures
Продолжительность: 01:44:52
Перевод: Дублированный [лицензия]

Файл
Кодек: x264
Качество: BDRip (источник: Blu-ray Disc)
Видео: 1280x534 (2.40:1), 23.976 fps, 6590 kbps
Аудио #1: AC-3, 6 ch, 640 kbps (Rus)
Аудио #2: AC-3, 6 ch, 640 kbps (Eng)
Субтитры: Русские (форс,полные), Английские
Скачать: сэмпл

General
Unique ID : 200016915389565377714157703544948339227 (0x9679DB4EF08BCC159744366333FF321B)
Complete name : D:My.Best.Friend's.Wedding.1997.BDRip.720p.Rus.Eng.mkv
Format : Matroska
Format version : Version 2
File size : 5.77 GiB
Duration : 1h 44mn
Overall bit rate : 7 871 Kbps
Movie name : Свадьба лучшего друга / My Best Friend's Wedding (1997)
Encoded date : UTC 2015-04-08 12:05:52
Writing application : mkvmerge v5.8.0 ('No Sleep / Pillow') built on Sep 2 2012 15:37:04
Writing library : libebml v1.2.3 + libmatroska v1.3.0
Attachements : cover.png / logfile.log

Video
ID : 1
Format : AVC
Format/Info : Advanced Video Codec
Format profile : High@L4.1
Format settings, CABAC : Yes
Format settings, ReFrames : 8 frames
Codec ID : V_MPEG4/ISO/AVC
Duration : 1h 44mn
Bit rate : 6 591 Kbps
Width : 1 280 pixels
Height : 534 pixels
Display aspect ratio : 2.40:1
Frame rate mode : Constant
Frame rate : 23.976 fps
Color space : YUV
Chroma subsampling : 4:2:0
Bit depth : 8 bits
Scan type : Progressive
Bits/(Pixel*Frame) : 0.402
Stream size : 4.71 GiB (82%)
Title : Свадьба лучшего друга / My Best Friend's Wedding (1997)
Writing library : x264 core 146 r2538 121396c
Encoding settings : cabac=1 / ref=8 / deblock=1:-3:-3 / analyse=0x3:0x133 / me=umh / subme=11 / psy=1 / psy_rd=1.00:0.00 / mixed_ref=1 / me_range=32 / chroma_me=1 / trellis=2 / 8x8dct=1 / cqm=0 / deadzone=21,11 / fast_pskip=0 / chroma_qp_offset=-2 / threads=12 / lookahead_threads=2 / sliced_threads=0 / nr=0 / decimate=0 / interlaced=0 / bluray_compat=0 / constrained_intra=0 / bframes=8 / b_pyramid=2 / b_adapt=2 / b_bias=0 / direct=3 / weightb=1 / open_gop=0 / weightp=2 / keyint=240 / keyint_min=23 / scenecut=40 / intra_refresh=0 / rc=2pass / mbtree=0 / bitrate=6591 / ratetol=1.0 / qcomp=0.60 / qpmin=0 / qpmax=69 / qpstep=4 / cplxblur=20.0 / qblur=0.5 / ip_ratio=1.40 / pb_ratio=1.30 / aq=1:1.00
Language : English
Default : Yes
Forced : No

Audio #1
ID : 2
Format : AC-3
Format/Info : Audio Coding 3
Mode extension : CM (complete main)
Format settings, Endianness : Big
Codec ID : A_AC3
Duration : 1h 44mn
Bit rate mode : Constant
Bit rate : 640 Kbps
Channel(s) : 6 channels
Channel positions : Front: L C R, Side: L R, LFE
Sampling rate : 48.0 KHz
Bit depth : 16 bits
Compression mode : Lossy
Stream size : 480 MiB (8%)
Title : Дубляж, Blu-ray NORDIC
Language : Russian
Default : Yes
Forced : No

Audio #2
ID : 3
Format : AC-3
Format/Info : Audio Coding 3
Mode extension : CM (complete main)
Format settings, Endianness : Big
Codec ID : A_AC3
Duration : 1h 44mn
Bit rate mode : Constant
Bit rate : 640 Kbps
Channel(s) : 6 channels
Channel positions : Front: L C R, Side: L R, LFE
Sampling rate : 48.0 KHz
Bit depth : 16 bits
Compression mode : Lossy
Stream size : 480 MiB (8%)
Title : English
Language : English
Default : No
Forced : No

Text #1
ID : 4
Format : UTF-8
Codec ID : S_TEXT/UTF8
Codec ID/Info : UTF-8 Plain Text
Title : Russian (Forced)
Language : Russian
Default : Yes
Forced : No

Text #2
ID : 5
Format : UTF-8
Codec ID : S_TEXT/UTF8
Codec ID/Info : UTF-8 Plain Text
Title : Russian
Language : Russian
Default : No
Forced : No

Text #3
ID : 6
Format : UTF-8
Codec ID : S_TEXT/UTF8
Codec ID/Info : UTF-8 Plain Text
Title : English
Language : English
Default : No
Forced : No

Menu
00:00:00.000 : :Chapter 01
00:03:23.912 : :Chapter 02
00:11:38.114 : :Chapter 03
00:19:12.151 : :Chapter 04
00:28:01.554 : :Chapter 05
00:35:13.111 : :Chapter 06
00:44:04.558 : :Chapter 07
00:48:51.428 : :Chapter 08
00:53:43.303 : :Chapter 09
01:02:18.609 : :Chapter 10
01:05:16.662 : :Chapter 11
01:11:54.518 : :Chapter 12
01:18:05.305 : :Chapter 13
01:23:30.755 : :Chapter 14
01:29:08.718 : :Chapter 15
01:34:36.837 : :Chapter 16
x264 [info]: frame I:1089 Avg QP:16.58 size:125057
x264 [info]: frame P:28843 Avg QP:18.88 size: 62662
x264 [info]: frame B:120932 Avg QP:20.78 size: 26763
x264 [info]: consecutive B-frames: 1.0% 0.8% 3.2% 18.7% 19.9% 38.0% 8.7% 6.2% 3.4%


_________________
Проголосуй за трекер Открытый торрент трекер - RUS-MEDIA.ORG

Проголосуй Открытый торрент трекер - RUS-MEDIA.ORG


Вернуться к началу
 Профиль Отправить личное сообщение  
 
   Похожие торренты   Автор   Торрент   Размер 
В этой теме нет новых непрочитанных сообщений. Девушка моего лучшего друга / My Best Friend's Girl [мелодрама, комедия, 2008] BDRip 720p, Dub [Unrated]

salma3

0 | 1

5.86 ГБ

В этой теме нет новых непрочитанных сообщений. Девушка моего лучшего друга / My Best Friend's Girl [мелодрама, комедия, 2008] BDRip 1080p, Dub [Unrated]

salma3

0 | 0

11.31 ГБ

В этой теме нет новых непрочитанных сообщений. Девушка моего лучшего друга / My Best Friend's Girl [Комедия, мелодрама, 2008] Blu-Ray 1080p, Dub [Unrated version]

salma3

25 | 30

41.96 ГБ

В этой теме нет новых непрочитанных сообщений. Моя большая греческая свадьба 2 / My Big Fat Greek Wedding 2 [мелодрама, комедия, семейный, 2016] BDRip 720p, Dub [iTunes]

salma3

34 | 15

4.25 ГБ

В этой теме нет новых непрочитанных сообщений. Моя большая греческая свадьба / My Big Fat Greek Wedding [мелодрама, комедия, 2002] BDRip-AVC, Dub

salma3

89 | 18

1.49 ГБ

В этой теме нет новых непрочитанных сообщений. Моя большая греческая свадьба 2 / My Big Fat Greek Wedding 2 (мелодрама, комедия, семейный, 2016) BDRip-AVC от R.G.Resident | iTunes

marya111

211 | 48

2.17 ГБ

В этой теме нет новых непрочитанных сообщений. Моя большая греческая свадьба 2 / My Big Fat Greek Wedding 2 [мелодрама, комедия, семейный, 2016] BDRip 1080p, Dub [iTunes]

salma3

151 | 48

7.42 ГБ


Начать новую тему Ответить на тему  [ 1 сообщение ] 




Для Мосгорсуда, Роскомнадзора и рекламодателей:: mosgorsud-torrent[собачка]yandex.ru
cron