Торрент файл
скачать торрент магнет ссылка Добавлен: 08 апр 2015, 16:05
Размер: 7.91 ГБ
Сидеров: 24
Личеров: 7
Автор

СообщениеДобавлено: 08 апр 2015, 16:05 

Не в сети
Супермодератор
Аватара пользователя
Дата регистрации:
15 фев 2012, 16:44
Возраст: 29
Спасибо: 7328 / 2147
Сообщения: 73524
Год выпуска: 2006
Жанр: триллер, драма
Выпущено: Германия
Режиссер: Ганс Хорн
В ролях: Сьюзэн Мэй Прэтт , Ричард Спейт мл. , Никлаус Ланж , Али Хиллис , Кэмерон Ричардсон , Эрик Дэйн , Вольфганг Раах , Александра Раах , Альфред Кушири , Келли Вагнер , Маттеа Габарретта , Люка Габаретта
Перевод: Дублированный, Профессиональный (двухголосый)

Сюжет фильма:
Группа приятелей собирается вместе, потому что один из них празднует свое тридцатилетие. Они арендуют яхту и выходят в открытое море. Они начинают купаться, и только когда все уже попрыгали в воду и накупавшись захотели обратно обнаружили, что забыли опустить лестницу...
Теперь никто не может попасть обратно на яхту, потому что ее борта слишком высоки. Битва вокруг жизни и смерти разворачивается на море. Кто же доживет до конца этой страшной поездки?..

Качество: BDRip 720p
Формат: AVC (библиотека кодирования x.264)
Контейнер (Расширение): MKV
Видео: 1280x544 (2.35:1), 10457 Кбит/сек, 23,976 кадр/сек, 0,626 Бит/[Пиксели*Кадры]
Аудио №1: русский / AC3 / 5.1 / 48 kHz / 448 kbps / |Дублированный|
Аудио №2: русский / AC3 / 2.0 / 48 kHz / 192 kbps / |Профессиональный (двухголосый)|
Аудио №3: английский / AC3 / 5.1 / 48 kHz / 640 kbps /
Субтитры: русские, английские
Навигация по главам(Чаптеры): есть
Продолжительность: 01:34:36
Автор рипа: Сообщество:

Format : Matroska
Format version : Version 2
File size : 7.91 GiB
Duration : 1h 34mn
Overall bit rate : 12.0 Mbps
Movie name : Drejf.(2006).BDRip.720p.[denis100]
Encoded date : UTC 2015-04-08 09:38:28
Writing application : mkvmerge v5.8.0 ('No Sleep / Pillow') built on Sep 2 2012 15:37:04
Writing library : libebml v1.2.3 + libmatroska v1.3.0

Video
ID : 1
Format : AVC
Format/Info : Advanced Video Codec
Format profile : High@L4.1
Format settings, CABAC : Yes
Format settings, ReFrames : 11 frames
Codec ID : V_MPEG4/ISO/AVC
Duration : 1h 34mn
Bit rate : 10.5 Mbps
Width : 1 280 pixels
Height : 544 pixels
Display aspect ratio : 2.35:1
Frame rate : 23.976 fps
Color space : YUV
Chroma subsampling : 4:2:0
Bit depth : 8 bits
Scan type : Progressive
Bits/(Pixel*Frame) : 0.626
Stream size : 6.91 GiB (87%)
Title : Drejf.(2006).BDRip.720p.[denis100]
Writing library : x264 core 146 r2538 121396c
Encoding settings : cabac=1 / ref=11 / deblock=1:-3:-3 / analyse=0x3:0x133 / me=umh / subme=11 / psy=1 / psy_rd=1.00:0.00 / mixed_ref=1 / me_range=48 / chroma_me=1 / trellis=2 / 8x8dct=1 / cqm=0 / deadzone=21,11 / fast_pskip=0 / chroma_qp_offset=-2 / threads=6 / lookahead_threads=1 / sliced_threads=0 / nr=0 / decimate=1 / interlaced=0 / bluray_compat=0 / constrained_intra=0 / bframes=12 / b_pyramid=2 / b_adapt=2 / b_bias=0 / direct=3 / weightb=1 / open_gop=0 / weightp=2 / keyint=240 / keyint_min=23 / scenecut=40 / intra_refresh=0 / rc=crf / mbtree=0 / crf=17.2 / qcomp=0.60 / qpmin=0 / qpmax=69 / qpstep=4 / ip_ratio=1.40 / pb_ratio=1.30 / aq=1:1.00
Language : English
Default : Yes
Forced : No

Audio #1
ID : 2
Format : AC-3
Format/Info : Audio Coding 3
Mode extension : CM (complete main)
Codec ID : A_AC3
Duration : 1h 34mn
Bit rate mode : Constant
Bit rate : 448 Kbps
Channel(s) : 6 channels
Channel positions : Front: L C R, Side: L R, LFE
Sampling rate : 48.0 KHz
Bit depth : 16 bits
Compression mode : Lossy
Stream size : 303 MiB (4%)
Title : Дублированный
Language : Russian
Default : No
Forced : No

Audio #2
ID : 3
Format : AC-3
Format/Info : Audio Coding 3
Mode extension : CM (complete main)
Codec ID : A_AC3
Duration : 1h 34mn
Bit rate mode : Constant
Bit rate : 192 Kbps
Channel(s) : 2 channels
Channel positions : Front: L R
Sampling rate : 48.0 KHz
Bit depth : 16 bits
Compression mode : Lossy
Stream size : 130 MiB (2%)
Title : Профессиональный двухголосый
Language : Russian
Default : No
Forced : No

Audio #3
ID : 4
Format : AC-3
Format/Info : Audio Coding 3
Mode extension : CM (complete main)
Codec ID : A_AC3
Duration : 1h 34mn
Bit rate mode : Constant
Bit rate : 640 Kbps
Channel(s) : 6 channels
Channel positions : Front: L C R, Side: L R, LFE
Sampling rate : 48.0 KHz
Bit depth : 16 bits
Compression mode : Lossy
Stream size : 433 MiB (5%)
Language : English
Default : No
Forced : No

Text #1
ID : 5
Format : UTF-8
Codec ID : S_TEXT/UTF8
Codec ID/Info : UTF-8 Plain Text
Language : Russian
Default : No
Forced : No

Text #2
ID : 6
Format : UTF-8
Codec ID : S_TEXT/UTF8
Codec ID/Info : UTF-8 Plain Text
Language : English
Default : No
Forced : No

Menu
00:00:00.000 : :Chapter 01
00:07:08.386 : :Chapter 02
00:13:22.218 : :Chapter 03
00:17:12.322 : :Chapter 04
00:23:54.975 : :Chapter 05
00:28:36.423 : :Chapter 06
00:33:21.082 : :Chapter 07
00:38:40.443 : :Chapter 08
00:43:21.932 : :Chapter 09
00:52:53.003 : :Chapter 10
01:00:38.593 : :Chapter 11
01:04:27.113 : :Chapter 12
01:08:22.848 : :Chapter 13
01:12:18.834 : :Chapter 14
01:20:01.046 : :Chapter 15
01:25:16.277 : :Chapter 16
01:34:36.253 : :Chapter 17
x264 [info]: frame I:661 Avg QP:16.07 size:110895
x264 [info]: frame P:29599 Avg QP:17.89 size: 79537
x264 [info]: frame B:105841 Avg QP:19.86 size: 48754


_________________
Проголосуй за трекер Открытый торрент трекер - RUS-MEDIA.ORG

Проголосуй Открытый торрент трекер - RUS-MEDIA.ORG


Вернуться к началу
 Профиль Отправить личное сообщение  
 
   Похожие торренты   Автор   Торрент   Размер 
В этой теме нет новых непрочитанных сообщений. Дрейф / Open Water 2: Adrift [Триллер, драма, 2006] BDRemux 1080p, Dub

salma3

0 | 0

20.55 ГБ

В этой теме нет новых непрочитанных сообщений. Дрейф / Adrift [ужасы, триллер, драма, 2006] HDRip, Dub [Лицензия]

salma3

76 | 8

1.45 ГБ

В этой теме нет новых непрочитанных сообщений. Открытое море / Open Water [Триллер, драма, 2003] BDRemux 1080p, Dub+Mvo+Sub

salma3

62 | 18

15.69 ГБ

В этой теме нет новых непрочитанных сообщений. Девушка из воды / Lady in the Water [фэнтези, триллер, драма, 2006] BDRip 1080p, Dub

salma3

6 | 24

8.78 ГБ

В этой теме нет новых непрочитанных сообщений. Одиночка / A Man Apart [Боевик, триллер, драма, 2003] BDRip 720p, Dub [Open Matte]

salma3

0 | 1

7.76 ГБ

В этой теме нет новых непрочитанных сообщений. Схватка / The Grey [Боевик, триллер, драма, 2011] BDRip 720p, Dub [Open Matte]

salma3

13 | 1

5.26 ГБ

В этой теме нет новых непрочитанных сообщений. Потерянные в Манхеттене / Adrift in Manhattan [драма, 2007] BDRip 1080p, Dvo

salma3

13 | 14

10.39 ГБ


Начать новую тему Ответить на тему  [ 1 сообщение ] 




Для Мосгорсуда, Роскомнадзора и рекламодателей:: mosgorsud-torrent[собачка]yandex.ru
cron