Торрент файл
скачать торрент магнет ссылка Добавлен: 06 апр 2015, 20:04
Размер: 6.18 ГБ
Сидеров: 10
Личеров: 5
Автор

СообщениеДобавлено: 06 апр 2015, 20:04 

Не в сети
Супермодератор
Аватара пользователя
Дата регистрации:
15 фев 2012, 16:44
Возраст: 28
Спасибо: 6918 / 2147
Сообщения: 52705
Год выпуска: 1984
Страна: США
Жанр: боевик, триллер, драма, приключения, военный
Продолжительность: 01:41:40
Перевод: профессиональный многоголосый, авторский, одноголосый закадровый
Субтитры: английские (внешние)

Режиссёр: Джозеф Зито

В ролях: Чак Норрис, Дэвид Тресс, Ленор Касдорф, Джеймс Хонг, Эрни Ортега, Пьеррино Маскарино, Эрик Андерсон, Джо Карберри, Ави Клайнбергер

Описание: Полковник Джеймс Брэддок, бежавший в своё время из вьетнамского плена, уверен, что во Вьетнаме до сих пор, через несколько лет после окончания войны, находятся пленные американцы. Приехав в составе делегации во Вьетнам, Брэддок узнает местоположение лагеря, где они содержатся, вооружается и вместе со своим приятелем Джеком Такером решает силой отбить солдат из вражеского плена!



Качество: BDRip-AVC Сравнение с исходником
Формат: MKV
Видео кодек: H.264
Аудио кодек: AC3
Видео: 7196 Кбит/с, 1280x694, 23.976 кадра/с, bpp
Аудио 1: русский, AC3, 192 kbps, 2 ch, 48 kHz [профессиональный многоголосый]
Аудио 2: русский, AC3, 192 kbps, 2 ch, 48 kHz [авторский, Василий Горчаков]
Аудио 3: русский, AC3, 192 kbps, 1 ch, 48 kHz [авторский, Юрий Живов]

Внешние файлы
Аудио: русский, AC3, 192 kbps, 2 ch, 48 kHz [одноголосый закадровый, вариант 1 (женский)]
Аудио: русский, AC3, 192 kbps, 2 ch, 48 kHz [одноголосый закадровый, вариант 2]
Аудио: русский, AC3, 192 kbps, 2 ch, 48 kHz [одноголосый закадровый, вариант 3]
Аудио: английский, AC3, 192 kbps, 1 ch, 48 kHz [оригинал]

frame I:961 Avg QP:21.76 size:111512
frame P:25785 Avg QP:22.69 size: 61659
frame B:119511 Avg QP:24.78 size: 32706

Общее
Уникальный идентификатор : 246570041818953631034775647932241609822 (0xB97FA9A63C23B6F295B389A530AF045E)
Полное имя : D:VideoBez vesti propavshie.1984.BDRip.720pBez vesti propavshie.1984.BDRip.720p.mkv
Формат : Matroska
Версия формата : Version 4 / Version 2
Размер файла : 5,63 Гбайт
Продолжительность : 1 ч. 41 м.
Общий поток : 7930 Кбит/сек
Дата кодирования : UTC 2015-04-06 04:10:57
Программа кодирования : mkvmerge v7.8.0 ('River Man') 64bit built on Mar 27 2015 16:31:37
Библиотека кодирования : libebml v1.3.1 + libmatroska v1.4.2
DURATION : 01:41:40.096000000
NUMBER_OF_FRAMES : 190628
NUMBER_OF_BYTES : 146402304
_STATISTICS_WRITING_APP : mkvmerge v7.8.0 ('River Man') 64bit built on Mar 27 2015 16:31:37
_STATISTICS_WRITING_DATE_UTC : 2015-04-06 04:10:57
_STATISTICS_TAGS : BPS DURATION NUMBER_OF_FRAMES NUMBER_OF_BYTES

Видео
Идентификатор : 1
Формат : AVC
Формат/Информация : Advanced Video Codec
Профиль формата : High@L4.1
Параметр CABAC формата : Да
Параметр ReFrames формата : 9 кадров
Идентификатор кодека : V_MPEG4/ISO/AVC
Продолжительность : 1 ч. 41 м.
Битрейт : 7196 Кбит/сек
Ширина : 1280 пикселей
Высота : 694 пикселя
Соотношение сторон : 1,85:1
Режим частоты кадров : Постоянный
Частота кадров : 23,976 кадра/сек
Цветовое пространство : YUV
Субдискретизация насыщенности : 4:2:0
Битовая глубина : 8 бит
Тип развёртки : Прогрессивная
Бит/(Пиксели*Кадры) : 0.338
Размер потока : 5,11 Гбайт (91%)
Заголовок : BDRip -- STarankov
Библиотека кодирования : x264 core 146 r2538 121396c
Настройки программы : cabac=1 / ref=9 / deblock=1:-1:-1 / analyse=0x3:0x113 / me=umh / subme=10 / psy=1 / psy_rd=1.00:0.15 / mixed_ref=1 / me_range=32 / chroma_me=1 / trellis=2 / 8x8dct=1 / cqm=0 / deadzone=21,11 / fast_pskip=1 / chroma_qp_offset=-3 / threads=6 / lookahead_threads=1 / sliced_threads=0 / nr=0 / decimate=1 / interlaced=0 / bluray_compat=0 / constrained_intra=0 / bframes=13 / b_pyramid=2 / b_adapt=2 / b_bias=0 / direct=3 / weightb=1 / open_gop=0 / weightp=2 / keyint=230 / keyint_min=23 / scenecut=40 / intra_refresh=0 / rc_lookahead=40 / rc=crf / mbtree=0 / crf=21.0 / qcomp=0.60 / qpmin=0 / qpmax=69 / qpstep=4 / vbv_maxrate=40000 / vbv_bufsize=50000 / crf_max=0.0 / nal_hrd=none / filler=0 / ip_ratio=1.40 / pb_ratio=1.30 / aq=1:1.00
Язык : English
Default : Да
Forced : Нет
DURATION : 01:41:40.136000000
NUMBER_OF_FRAMES : 146257
NUMBER_OF_BYTES : 5605800671
_STATISTICS_WRITING_APP : mkvmerge v7.8.0 ('River Man') 64bit built on Mar 27 2015 16:31:37
_STATISTICS_WRITING_DATE_UTC : 2015-04-06 04:10:57
_STATISTICS_TAGS : BPS DURATION NUMBER_OF_FRAMES NUMBER_OF_BYTES

Аудио #1
Идентификатор : 2
Формат : AC-3
Формат/Информация : Audio Coding 3
Расширение режима : CM (complete main)
Параметр Endianness формата : Big
Идентификатор кодека : A_AC3
Продолжительность : 1 ч. 41 м.
Вид битрейта : Постоянный
Битрейт : 192 Кбит/сек
Каналы : 2 канала
Расположение каналов : Front: L R
Частота : 48,0 КГц
Битовая глубина : 16 бит
Метод сжатия : С потерями
Размер потока : 140 Мбайт (2%)
Заголовок : MVO
Язык : Russian
Default : Да
Forced : Нет

Аудио #2
Идентификатор : 3
Формат : AC-3
Формат/Информация : Audio Coding 3
Расширение режима : CM (complete main)
Параметр Endianness формата : Big
Идентификатор кодека : A_AC3
Продолжительность : 1 ч. 41 м.
Вид битрейта : Постоянный
Битрейт : 192 Кбит/сек
Каналы : 2 канала
Расположение каналов : Front: L R
Частота : 48,0 КГц
Битовая глубина : 16 бит
Метод сжатия : С потерями
Размер потока : 140 Мбайт (2%)
Заголовок : AVO (Василий Горчаков)
Язык : Russian
Default : Нет
Forced : Нет

Аудио #3
Идентификатор : 4
Формат : AC-3
Формат/Информация : Audio Coding 3
Расширение режима : CM (complete main)
Параметр Endianness формата : Big
Идентификатор кодека : A_AC3
Продолжительность : 1 ч. 41 м.
Вид битрейта : Постоянный
Битрейт : 192 Кбит/сек
Каналы : 1 канал
Расположение каналов : Front: C
Частота : 48,0 КГц
Битовая глубина : 16 бит
Метод сжатия : С потерями
Размер потока : 140 Мбайт (2%)
Заголовок : AVO (Юрий Живов)
Язык : Russian
Default : Нет
Forced : Нет

Общее
Полное имя : D:VideoBez vesti propavshie.1984.BDRip.720pBez vesti propavshie.1984.eng.srt
Формат : SubRip
Размер файла : 41,1 Кбайт

Текст
Формат : SubRip
Метод сжатия : Без потерь

Общее
Полное имя : D:VideoBez vesti propavshie.1984.BDRip.720pBez vesti propavshie.1984.Original.eng.ac3
Формат : AC-3
Формат/Информация : Audio Coding 3
Размер файла : 140 Мбайт
Продолжительность : 1 ч. 41 м.
Режим общего битрейта : Постоянный
Общий поток : 192 Кбит/сек

Аудио
Формат : AC-3
Формат/Информация : Audio Coding 3
Расширение режима : CM (complete main)
Параметр Endianness формата : Big
Продолжительность : 1 ч. 41 м.
Вид битрейта : Постоянный
Битрейт : 192 Кбит/сек
Каналы : 1 канал
Расположение каналов : Front: C
Частота : 48,0 КГц
Битовая глубина : 16 бит
Метод сжатия : С потерями
Размер потока : 140 Мбайт (100%)

Общее
Полное имя : D:VideoBez vesti propavshie.1984.BDRip.720pBez vesti propavshie.1984.VO.rus.вариант 1 (дама).ac3
Формат : AC-3
Формат/Информация : Audio Coding 3
Размер файла : 140 Мбайт
Продолжительность : 1 ч. 41 м.
Режим общего битрейта : Постоянный
Общий поток : 192 Кбит/сек

Аудио
Формат : AC-3
Формат/Информация : Audio Coding 3
Расширение режима : CM (complete main)
Параметр Endianness формата : Big
Продолжительность : 1 ч. 41 м.
Вид битрейта : Постоянный
Битрейт : 192 Кбит/сек
Каналы : 2 канала
Расположение каналов : Front: L R
Частота : 48,0 КГц
Битовая глубина : 16 бит
Метод сжатия : С потерями
Размер потока : 140 Мбайт (100%)

Общее
Полное имя : D:VideoBez vesti propavshie.1984.BDRip.720pBez vesti propavshie.1984.VO.rus.вариант 2.ac3
Формат : AC-3
Формат/Информация : Audio Coding 3
Размер файла : 140 Мбайт
Продолжительность : 1 ч. 41 м.
Режим общего битрейта : Постоянный
Общий поток : 192 Кбит/сек

Аудио
Формат : AC-3
Формат/Информация : Audio Coding 3
Расширение режима : CM (complete main)
Параметр Endianness формата : Big
Продолжительность : 1 ч. 41 м.
Вид битрейта : Постоянный
Битрейт : 192 Кбит/сек
Каналы : 2 канала
Расположение каналов : Front: L R
Частота : 48,0 КГц
Битовая глубина : 16 бит
Метод сжатия : С потерями
Размер потока : 140 Мбайт (100%)

Общее
Полное имя : D:VideoBez vesti propavshie.1984.BDRip.720pBez vesti propavshie.1984.VO.rus.вариант 3.ac3
Формат : AC-3
Формат/Информация : Audio Coding 3
Размер файла : 140 Мбайт
Продолжительность : 1 ч. 41 м.
Режим общего битрейта : Постоянный
Общий поток : 192 Кбит/сек

Аудио
Формат : AC-3
Формат/Информация : Audio Coding 3
Расширение режима : CM (complete main)
Параметр Endianness формата : Big
Продолжительность : 1 ч. 41 м.
Вид битрейта : Постоянный
Битрейт : 192 Кбит/сек
Каналы : 2 канала
Расположение каналов : Front: L R
Частота : 48,0 КГц
Битовая глубина : 16 бит
Метод сжатия : С потерями
Размер потока : 140 Мбайт (100%)




_________________
Проголосуй за трекер Открытый торрент трекер - RUS-MEDIA.ORG

Проголосуй Открытый торрент трекер - RUS-MEDIA.ORG



реклама партнёра


Вернуться к началу
 Профиль Отправить личное сообщение  
 
   Похожие торренты   Автор   Торрент   Размер 
В этой теме нет новых непрочитанных сообщений. Без вести пропавшие / Missing in Action [Боевик, триллер, драма, 1984] BDRemux 1080p, Mvo

salma3

2 | 1

25.56 ГБ

В этой теме нет новых непрочитанных сообщений. Без вести пропавшие 2: Начало / Missing in Action 2: The Beginning [Боевик, триллер, драма, 1985] BDRemux 1080p, Mvo

salma3

3 | 2

18.8 ГБ

В этой теме нет новых непрочитанных сообщений. Пропавший без вести / Missing [драма, детектив, история, 1982] BDRip 720p, Mvo

salma3

22 | 18

5.73 ГБ

В этой теме нет новых непрочитанных сообщений. Класс 1984 / Class of 1984 [боевик, триллер, драма, криминал, 1982] BDRip 720p, Avo

salma3

13 | 16

4.67 ГБ

В этой теме нет новых непрочитанных сообщений. Тройной крест / Triple cross [боевик, триллер, драма, приключения, военный, 1966] BDRip 720p, Mvo+Avo

salma3

5 | 5

5.08 ГБ

В этой теме нет новых непрочитанных сообщений. Баунти / The Bounty [Боевик, драма, приключения, история, 1984] BDRip 720p, Mvo+Sub

salma3

90 | 11

5.76 ГБ

В этой теме нет новых непрочитанных сообщений. Класс 1984 / Class of 1984 [боевик, триллер, драма, 1982] BDRip-AVC, Avo

salma3

5 | 6

2.18 ГБ


Начать новую тему Ответить на тему  [ 1 сообщение ] 




Для Мосгорсуда, Роскомнадзора и рекламодателей:: mosgorsud-torrent[собачка]yandex.ru
cron