Торрент файл
скачать торрент магнет ссылка Добавлен: 04 апр 2015, 10:36
Размер: 11.9 ГБ
Сидеров: 2
Личеров: 2
Автор

СообщениеДобавлено: 04 апр 2015, 10:36 

Не в сети
Зам. Админа
Аватара пользователя
Дата регистрации:
02 дек 2010, 12:39
Спасибо: 12625 / 214
Сообщения: 28010
Год выхода: 2014
Жанр: боевик, триллер, драма, криминал
Режиссер: Джей Си Чендор
В ролях: Оскар Айзек, Джессика Честейн, Дэвид Ойелоуо, Алессандро Нивола, Альберт Брукс, Элиес Габел, Каталина Сандино Морено, Питер Герети, Кристофер Эбботт, Эшли Уильямс

О фильме:
События фильма разворачиваются преимущественно на Манхэттене начала 1980-х годов, когда был зафиксирован всплеск уровня преступности. Главный герой — иммигрант из латинской Америки, прибывший в США с амбициозными мечтами и вскоре действительно добившийся большого успеха в бизнесе. Однако уличная преступность, охватившая Нью-Йорк, коррупция и моральное разложение создают для него и его семьи большие проблемы.



Качество: BDRip [1080p]
Видео: MPEG-4 AVC, ~11.0 Mbps, 1920х800, 23.976 fps
Аудио 1: русский, AC3, 448 kb/s (6 ch), 48 kHz |Любительское (двухголосое) Антон Емельянов & Анастасия Снегирёва|  
Аудио 2: русский, AC3, 640 kb/s (6 ch), 48 kHz |Любительское (одноголосое) Paul Bunyan|      
Аудио 3: английский, DTS, 1509 kb/s (6 ch), 48 kHz |Оригинал|
Продолжительность: 02:04:56
Перевод: Любительский (двухголосый) [Антон Емельянов & Анастасия Снегирёва] + Любительское (одноголосое) [Paul Bunyan]
Субтитры: русские [Janetta], английские
General
Unique ID                                : 211354338410681139575215941516439367538 (0x9F015D6B895F2176995D8898771CAF72)
Complete name                            : E:с торрентовA.Most.Violent.Year.2014.Blu.Ray.1080p.mkv
Format                                   : Matroska
Format version                           : Version 4 / Version 2
File size                                : 11.9 GiB
Duration                                 : 2h 4mn
Overall bit rate                         : 13.6 Mbps
Movie name                               : Release Group CINEMANIA
Encoded date                             : UTC 2015-04-03 22:58:14
Writing application                      : mkvmerge v7.8.0 ('River Man') 64bit built on Mar 27 2015 16:31:37
Writing library                          : libebml v1.3.1 + libmatroska v1.4.2

Video
ID                                       : 1
Format                                   : AVC
Format/Info                              : Advanced Video Codec
Format profile                           : High@L4.1
Format settings, CABAC                   : Yes
Format settings, ReFrames                : 5 frames
Codec ID                                 : V_MPEG4/ISO/AVC
Duration                                 : 2h 4mn
Bit rate                                 : 11.0 Mbps
Width                                    : 1 920 pixels
Height                                   : 800 pixels
Display aspect ratio                     : 2.40:1
Frame rate mode                          : Constant
Frame rate                               : 23.976 fps
Color space                              : YUV
Chroma subsampling                       : 4:2:0
Bit depth                                : 8 bits
Scan type                                : Progressive
Bits/(Pixel*Frame)                       : 0.300
Stream size                              : 9.40 GiB (79%)
Title                                    : Release Group CINEMANIA
Writing library                          : x264 core 129 r2245 bc13772
Encoding settings                        : cabac=1 / ref=5 / deblock=1:-3:-3 / analyse=0x3:0x133 / me=umh / subme=11 / psy=1 / psy_rd=1.05:0.05 / mixed_ref=1 / me_range=64 / chroma_me=1 / trellis=2 / 8x8dct=1 / cqm=0 / deadzone=21,11 / fast_pskip=0 / chroma_qp_offset=-3 / threads=12 / lookahead_threads=2 / sliced_threads=0 / nr=0 / decimate=1 / interlaced=0 / bluray_compat=0 / constrained_intra=0 / bframes=8 / b_pyramid=2 / b_adapt=2 / b_bias=0 / direct=3 / weightb=1 / open_gop=0 / weightp=2 / keyint=250 / keyint_min=23 / scenecut=40 / intra_refresh=0 / rc_lookahead=60 / rc=2pass / mbtree=1 / bitrate=11043 / ratetol=1.0 / qcomp=0.60 / qpmin=0 / qpmax=69 / qpstep=4 / cplxblur=20.0 / qblur=0.5 / vbv_maxrate=40000 / vbv_bufsize=30000 / nal_hrd=none / ip_ratio=1.40 / aq=1:0.80
Language                                 : English
Default                                  : Yes
Forced                                   : No

Audio #1
ID                                       : 2
Format                                   : AC-3
Format/Info                              : Audio Coding 3
Mode extension                           : CM (complete main)
Format settings, Endianness              : Big
Codec ID                                 : A_AC3
Duration                                 : 2h 4mn
Bit rate mode                            : Constant
Bit rate                                 : 448 Kbps
Channel(s)                               : 6 channels
Channel positions                        : Front: L C R, Side: L R, LFE
Sampling rate                            : 48.0 KHz
Bit depth                                : 16 bits
Compression mode                         : Lossy
Stream size                              : 400 MiB (3%)
Title                                    : Антон Емельянов & Анастасия Снегирёва
Language                                 : Russian
Default                                  : Yes
Forced                                   : Yes

Audio #2
ID                                       : 3
Format                                   : AC-3
Format/Info                              : Audio Coding 3
Mode extension                           : CM (complete main)
Format settings, Endianness              : Big
Codec ID                                 : A_AC3
Duration                                 : 2h 4mn
Bit rate mode                            : Constant
Bit rate                                 : 640 Kbps
Channel(s)                               : 6 channels
Channel positions                        : Front: L C R, Side: L R, LFE
Sampling rate                            : 48.0 KHz
Bit depth                                : 16 bits
Compression mode                         : Lossy
Stream size                              : 572 MiB (5%)
Title                                    : Paul Bunyan
Language                                 : Russian
Default                                  : No
Forced                                   : No

Audio #3
ID                                       : 4
Format                                   : DTS
Format/Info                              : Digital Theater Systems
Mode                                     : 16
Format settings, Endianness              : Big
Codec ID                                 : A_DTS
Duration                                 : 2h 4mn
Bit rate mode                            : Constant
Bit rate                                 : 1 509 Kbps
Channel(s)                               : 6 channels
Channel positions                        : Front: L C R, Side: L R, LFE
Sampling rate                            : 48.0 KHz
Bit depth                                : 24 bits
Compression mode                         : Lossy
Stream size                              : 1.32 GiB (11%)
Language                                 : English
Default                                  : No
Forced                                   : No

Text #1
ID                                       : 5
Format                                   : UTF-8
Codec ID                                 : S_TEXT/UTF8
Codec ID/Info                            : UTF-8 Plain Text
Language                                 : Russian
Default                                  : Yes
Forced                                   : Yes

Text #2
ID                                       : 6
Format                                   : UTF-8
Codec ID                                 : S_TEXT/UTF8
Codec ID/Info                            : UTF-8 Plain Text
Title                                    : Janetta
Language                                 : Russian
Default                                  : No
Forced                                   : No

Text #3
ID                                       : 7
Format                                   : UTF-8
Codec ID                                 : S_TEXT/UTF8
Codec ID/Info                            : UTF-8 Plain Text
Language                                 : English
Default                                  : No
Forced                                   : No

Text #4
ID                                       : 8
Format                                   : UTF-8
Codec ID                                 : S_TEXT/UTF8
Codec ID/Info                            : UTF-8 Plain Text
Title                                    : SDH
Language                                 : English
Default                                  : No
Forced                                   : No

Menu
00:00:00.000                             : en:Chapter 01
00:09:19.642                             : en:Chapter 02
00:13:44.240                             : en:Chapter 03
00:20:48.330                             : en:Chapter 04
00:27:38.198                             : en:Chapter 05
00:36:31.063                             : en:Chapter 06
00:44:45.349                             : en:Chapter 07
00:50:33.697                             : en:Chapter 08
00:57:57.974                             : en:Chapter 09
01:08:19.345                             : en:Chapter 10
01:13:22.272                             : en:Chapter 11
01:23:07.357                             : en:Chapter 12
01:31:17.221                             : en:Chapter 13
01:39:54.029                             : en:Chapter 14
01:50:43.094                             : en:Chapter 15
01:56:46.249                             : en:Chapter 16









реклама партнёра


Вернуться к началу
 Профиль  
 
   Похожие торренты   Автор   Торрент   Размер 
В этой теме нет новых непрочитанных сообщений. Самый жестокий год / A Most Violent Year (Джей Си Чендор) [боевик, триллер, драма, криминал, 2014] BDRip 720p, dvo

Dracon

90 | 15

2.86 ГБ

В этой теме нет новых непрочитанных сообщений. Самый жестокий год / A Most Violent Year (Джей Си Чендор) [боевик, триллер, драма, криминал, 2014] BDRip 720p, dvo+sub

Dracon

74 | 7

5.21 ГБ

В этой теме нет новых непрочитанных сообщений. Самый жестокий год / A Most Violent Year (Джей Си Чендор) [боевик, триллер, драма, криминал, 2014] HDRip, dvo

Dracon

92 | 4

1.35 ГБ

В этой теме нет новых непрочитанных сообщений. Самый жестокий год / A Most Violent Year (Джей Си Чендор) [2014, Драма, боевик, триллер, криминал, WEB-DLRip 720p] Sub

Nickolas3435

419 | 21

1.89 ГБ

В этой теме нет новых непрочитанных сообщений. Жестокий полицейский / Violent cop [боевик, триллер, драма, криминал, 1989] BDRip 720p, Dvo+Sub

salma3

71 | 14

6.33 ГБ

В этой теме нет новых непрочитанных сообщений. Жестокий полицейский / Violent Cop [боевик, триллер, драма, 1989] HDRip, Dvo

salma3

51 | 13

1.45 ГБ

В этой теме нет новых непрочитанных сообщений. Жестокий прокурор / A Violent Prosecutor / Geomsawejeon [криминал, 2016] BDRemux 1080p, Dvo

salma3

0 | 8

21.94 ГБ


Начать новую тему Ответить на тему  [ 1 сообщение ] 




Для Мосгорсуда, Роскомнадзора и рекламодателей:: mosgorsud-torrent[собачка]yandex.ru