Торрент файл
скачать торрент магнет ссылка Добавлен: 31 мар 2015, 19:45
Размер: 3.09 ГБ
Сидеров: 33
Личеров: 4
Автор

СообщениеДобавлено: 31 мар 2015, 19:45 

Не в сети
Супермодератор
Аватара пользователя
Дата регистрации:
15 фев 2012, 16:44
Возраст: 28
Спасибо: 6487 / 2129
Сообщения: 41182
Год выпуска: 2009
Страна: Великобритания
Жанр: фэнтези, драма, приключения
Продолжительность: 01:35:54
Перевод: профессиональный двухголосый
Субтитры: русские, английские

Режиссёр: Джулиан Феллоуз

В ролях: Алекс Этель, Мэгги Смит, Тимоти Сполл, Доминик Уэст, Кэрис ван Хаутен, Хью Бонневилль, Дуглас Бут, Элиза Беннетт, Кваедза Курейа, Полин Коллинз, Дэйзи Льюис

Описание: Декабрь 1944 года, Англия. 13-летний Толли отослан к бабушке в её загородное поместье Грин-Ноу, пока его мать занимается поисками сведений о пропавшем без вести на фронте отце. В старинном фамильном особняке Толли вдруг обнаруживает, что может перемещаться в прошлое и становиться свидетелем многих давних событий, о которых ему рассказывает бабушка. Его вовлекают в семейные скандалы и тайны 1805 года, отголоски которых всё ещё слышатся в его собственной эпохе... Фильм снят по роману Люси М. Бостон.



Качество: BDRip 720p Сравнение с исходником
Формат: MKV
Видео кодек: H.264
Аудио кодек: AC3
Видео: 3880 Кбит/с, 1280x720, 23.976 кадра/с, 0.176 bpp
Аудио 1: русский, AC3, 192 kbps, 2 ch, 48 kHz [профессиональный двухголосый, студия "NLS"]
Аудио 2: английский, AC3, 448 kbps, 6 ch, 48 kHz [оригинал]

frame I:1018 Avg QP:17.26 size:105682
frame P:24937 Avg QP:18.35 size: 46392
frame B:111998 Avg QP:20.53 size: 14207

Общее
Уникальный идентификатор : 173305462423665247302214975219224514231 (0x82616AFF79F923B484DD7C0FFEBB8EB7)
Полное имя : D:VideoIz vremeni vo vremja.2009.BDRip.720p.mkv
Формат : Matroska
Версия формата : Version 4 / Version 2
Размер файла : 3,09 Гбайт
Продолжительность : 1 ч. 35 м.
Общий поток : 4612 Кбит/сек
Дата кодирования : UTC 2015-03-31 05:56:37
Программа кодирования : mkvmerge v7.8.0 ('River Man') 64bit built on Mar 27 2015 16:31:37
Библиотека кодирования : libebml v1.3.1 + libmatroska v1.4.2
_STATISTICS_WRITING_APP : mkvmerge v7.8.0 ('River Man') 64bit built on Mar 27 2015 16:31:37
_STATISTICS_WRITING_DATE_UTC : 2015-03-31 05:56:37
_STATISTICS_TAGS : BPS DURATION NUMBER_OF_FRAMES NUMBER_OF_BYTES
DURATION : 01:30:03.736000000
NUMBER_OF_FRAMES : 865
NUMBER_OF_BYTES : 40975

Видео
Идентификатор : 1
Формат : AVC
Формат/Информация : Advanced Video Codec
Профиль формата : High@L4.1
Параметр CABAC формата : Да
Параметр ReFrames формата : 9 кадров
Идентификатор кодека : V_MPEG4/ISO/AVC
Продолжительность : 1 ч. 35 м.
Битрейт : 3880 Кбит/сек
Ширина : 1280 пикселей
Высота : 720 пикселей
Соотношение сторон : 16:9
Режим частоты кадров : Постоянный
Частота кадров : 23,976 кадра/сек
Цветовое пространство : YUV
Субдискретизация насыщенности : 4:2:0
Битовая глубина : 8 бит
Тип развёртки : Прогрессивная
Бит/(Пиксели*Кадры) : 0.176
Размер потока : 2,60 Гбайт (84%)
Заголовок : BDRip -- STarankov
Библиотека кодирования : x264 core 142 r2431 ac76440
Настройки программы : cabac=1 / ref=9 / deblock=1:-1:-1 / analyse=0x3:0x113 / me=umh / subme=10 / psy=1 / psy_rd=1.00:0.15 / mixed_ref=1 / me_range=32 / chroma_me=1 / trellis=2 / 8x8dct=1 / cqm=0 / deadzone=21,11 / fast_pskip=1 / chroma_qp_offset=-3 / threads=6 / lookahead_threads=1 / sliced_threads=0 / nr=0 / decimate=1 / interlaced=0 / bluray_compat=0 / constrained_intra=0 / bframes=12 / b_pyramid=2 / b_adapt=2 / b_bias=0 / direct=3 / weightb=1 / open_gop=0 / weightp=2 / keyint=230 / keyint_min=23 / scenecut=40 / intra_refresh=0 / rc_lookahead=40 / rc=crf / mbtree=0 / crf=19.5 / qcomp=0.60 / qpmin=0 / qpmax=69 / qpstep=4 / vbv_maxrate=40000 / vbv_bufsize=50000 / crf_max=0.0 / nal_hrd=none / filler=0 / ip_ratio=1.40 / pb_ratio=1.30 / aq=1:1.00
Язык : English
Default : Да
Forced : Нет
DURATION : 01:35:53.790000000
NUMBER_OF_FRAMES : 137953
NUMBER_OF_BYTES : 2855573231
_STATISTICS_WRITING_APP : mkvmerge v7.8.0 ('River Man') 64bit built on Mar 27 2015 16:31:37
_STATISTICS_WRITING_DATE_UTC : 2015-03-31 05:56:37
_STATISTICS_TAGS : BPS DURATION NUMBER_OF_FRAMES NUMBER_OF_BYTES

Аудио #1
Идентификатор : 2
Формат : AC-3
Формат/Информация : Audio Coding 3
Расширение режима : CM (complete main)
Параметр Endianness формата : Big
Идентификатор кодека : A_AC3
Продолжительность : 1 ч. 35 м.
Вид битрейта : Постоянный
Битрейт : 192 Кбит/сек
Каналы : 2 канала
Расположение каналов : Front: L R
Частота : 48,0 КГц
Битовая глубина : 16 бит
Метод сжатия : С потерями
Размер потока : 132 Мбайт (4%)
Заголовок : DVO (студия "NLS")
Язык : Russian
Default : Да
Forced : Нет

Аудио #2
Идентификатор : 3
Формат : AC-3
Формат/Информация : Audio Coding 3
Расширение режима : CM (complete main)
Параметр Endianness формата : Big
Идентификатор кодека : A_AC3
Продолжительность : 1 ч. 35 м.
Вид битрейта : Постоянный
Битрейт : 448 Кбит/сек
Каналы : 6 каналов
Расположение каналов : Front: L C R, Side: L R, LFE
Частота : 48,0 КГц
Битовая глубина : 16 бит
Метод сжатия : С потерями
Размер потока : 307 Мбайт (10%)
Заголовок : Original
Язык : English
Default : Нет
Forced : Нет

Текст #1
Идентификатор : 4
Формат : UTF-8
Идентификатор кодека : S_TEXT/UTF8
Идентификатор кодека/Информация : UTF-8 Plain Text
Заголовок : русские
Язык : Russian
Default : Нет
Forced : Нет

Текст #2
Идентификатор : 5
Формат : UTF-8
Идентификатор кодека : S_TEXT/UTF8
Идентификатор кодека/Информация : UTF-8 Plain Text
Заголовок : английские
Default : Нет
Forced : Нет



_________________
Проголосуй за трекер Открытый торрент трекер - RUS-MEDIA.ORG

Проголосуй Открытый торрент трекер - RUS-MEDIA.ORG



реклама партнёра


Вернуться к началу
 Профиль Отправить личное сообщение  
 
   Похожие торренты   Автор   Торрент   Размер 
В этой теме нет новых непрочитанных сообщений. Из времени во время / From Time to Time [фэнтези, драма, приключения, 2009] НDRip, Dvo+Sub

salma3

19 | 0

1.46 ГБ

В этой теме нет новых непрочитанных сообщений. Путешествие в машине времени / Time After Time [фантастика, триллер, мелодрама, 1979] BDRip 720p, Mvo

salma3

74 | 4

4.29 ГБ

В этой теме нет новых непрочитанных сообщений. Эпоха за эпохой / Time After Time [01x01 из 12] [Фантастика, драма, 2017] WEBRip 720p, Mvo [IdeaFilm]

salma3

36 | 7

1.28 ГБ

В этой теме нет новых непрочитанных сообщений. Путешествие в машине времени / Time After Time [Фантастика, триллер, мелодрама, 1979] BDRip 1080p, Mvo

salma3

8 | 18

11.82 ГБ

В этой теме нет новых непрочитанных сообщений. Эпоха за эпохой / Time After Time [01x01 из 12] [Фантастика, драма, 2017] WEBRip, Mvo [IdeaFilm]

salma3

38 | 3

530 МБ

В этой теме нет новых непрочитанных сообщений. Девочка, покорившая время / Toki o kakeru shôjo / Time Traveller [Фантастика, приключения, 2010] BDRip 720p, Avo+Sub

salma3

30 | 5

4 ГБ

В этой теме нет новых непрочитанных сообщений. Однажды в Сказке / Once Upon a Time / 4 сезон 1-23 серии из 23 [фэнтези, драма, приключения , 2014] WEB-DLRip, Dub [Невафильм]

salma3

948 | 495

11.22 ГБ


Начать новую тему Ответить на тему  [ 1 сообщение ] 




Для Мосгорсуда, Роскомнадзора и рекламодателей:: mosgorsud-torrent[собачка]yandex.ru