Торрент файл
скачать торрент магнет ссылка Добавлен: 29 мар 2015, 09:59
Размер: 3.01 ГБ
Сидеров: 123
Личеров: 5
Автор

СообщениеДобавлено: 29 мар 2015, 09:59 

Не в сети
Супермодератор
Аватара пользователя
Дата регистрации:
15 фев 2012, 16:44
Возраст: 28
Спасибо: 6659 / 2146
Сообщения: 46020
Информация о фильме
Год выпуска: 2009
Жанр: фантастика, боевик, фэнтези
Режиссер: Джеймин Винанс

В ролях: Крис Келли, Куинн Ханчар, Джессика Даффи, Дженифер Баттер, Шелби Мэлоун, Шэннан Стил, Стивен Браун

Описание:
Когда свет исчезает и город засыпает, две силы появляются. Они невидимы, но имеют власть над людьми во сне, борясь за наши души через сны. Одна сила дает надежду и силу через хорошие сны, другая вселяется в подсознательное через кошмары. Джон и Эмма, отец и дочь, ворвались в этот фантастический мир мечты, вынуждены бороться за свои души, чтобы вырваться из вечного кошмара. К тому же на своем пути они сталкиваются с необычными символами, которые существуют только в их подсознании.



Страна: США
Продолжительность: 01:46:14
Перевод: Профессиональный (одноголосый, закадровый)

Файл
Качество: BDRip 720p
Формат: .mkv
Видео: 1280x720, 23.976fps, High@L4.1, ~3800 Kbps
Аудио: 48.0 kHz, AC3, 2.0, ~192.00 kbps

General
Unique ID : 331672775020282136757463279298615399066 (0xF985DA58A277838DDB781F0AC377529A)
Complete name : E:КиноЧернила.(2009).BLU-RAY.720p.[-=DoMiNo=-].mkv
Format : Matroska
Format version : Version 4 / Version 2
File size : 3.01 GiB
Duration : 1h 46mn
Overall bit rate : 4 050 Kbps
Writing application : XviD4PSP 7.0 / 56.15.102
Writing library : XviD4PSP 7.0 / 56.15.102

Video
ID : 1
Format : AVC
Format/Info : Advanced Video Codec
Format profile : High@L4.1
Format settings, CABAC : Yes
Format settings, ReFrames : 8 frames
Codec ID : V_MPEG4/ISO/AVC
Duration : 1h 46mn
Bit rate : 3 777 Kbps
Width : 1 280 pixels
Height : 720 pixels
Display aspect ratio : 16:9
Frame rate mode : Constant
Frame rate : 23.976 fps
Color space : YUV
Chroma subsampling : 4:2:0
Bit depth : 8 bits
Scan type : Progressive
Bits/(Pixel*Frame) : 0.171
Stream size : 2.80 GiB (93%)
Writing library : x264 core 146 r2538M 121396c
Encoding settings : cabac=1 / ref=8 / deblock=1:-3:-3 / analyse=0x3:0x133 / me=umh / subme=10 / psy=1 / psy_rd=1,00:0,10 / mixed_ref=1 / me_range=32 / chroma_me=1 / trellis=2 / 8x8dct=1 / cqm=0 / deadzone=21,11 / fast_pskip=0 / chroma_qp_offset=-3 / threads=12 / lookahead_threads=2 / sliced_threads=0 / nr=0 / decimate=1 / interlaced=0 / bluray_compat=0 / constrained_intra=0 / bframes=7 / b_pyramid=2 / b_adapt=2 / b_bias=0 / direct=1 / weightb=1 / open_gop=0 / weightp=2 / keyint=230 / keyint_min=23 / scenecut=40 / intra_refresh=0 / rc=crf / mbtree=0 / crf=16,5 / qcomp=0,60 / qpmin=18 / qpmax=69 / qpstep=4 / ip_ratio=1,40 / pb_ratio=1,30 / aq=1:1,00
Default : Yes
Forced : No
Color primaries : BT.709
Transfer characteristics : BT.709
Matrix coefficients : BT.709
Color range : Limited

Audio
ID : 2
Format : AC-3
Format/Info : Audio Coding 3
Mode extension : CM (complete main)
Format settings, Endianness : Big
Codec ID : A_AC3
Duration : 1h 46mn
Bit rate mode : Constant
Bit rate : 192 Kbps
Channel(s) : 2 channels
Channel positions : Front: L R
Sampling rate : 48.0 KHz
Bit depth : 16 bits
Compression mode : Lossy
Stream size : 146 MiB (5%)
Language : Russian
Default : Yes
Forced : No


_________________
Проголосуй за трекер Открытый торрент трекер - RUS-MEDIA.ORG

Проголосуй Открытый торрент трекер - RUS-MEDIA.ORG



реклама партнёра


Вернуться к началу
 Профиль Отправить личное сообщение  
 
   Похожие торренты   Автор   Торрент   Размер 
В этой теме нет новых непрочитанных сообщений. Девять / 9 [мультфильм, фантастика, фэнтези, боевик, триллер, драма, детектив, приключения, 2009] BDRip 720p, Dub+Avo+Sub

salma3

167 | 9

3.1 ГБ

В этой теме нет новых непрочитанных сообщений. Таймер / TiMER [Комедия, фантастика, фэнтези, 2009] BDRip 720p, Mvo

salma3

56 | 38

5.97 ГБ

В этой теме нет новых непрочитанных сообщений. Защитники [Фантастика, фэнтези, боевик, 2016] BDRip 720p, [Лицензия]

salma3

1376 | 465

4.09 ГБ

В этой теме нет новых непрочитанных сообщений. Защитники [фантастика, фэнтези, боевик, приключения, 2017] BDRip 720p [iPad] [Лицензия]

salma3

368 | 63

2.08 ГБ

В этой теме нет новых непрочитанных сообщений. Зловещий отряд / Sinister Squad [фантастика, фэнтези, боевик, 2016] BDRip 720p, Mvo

salma3

543 | 153

3.56 ГБ

В этой теме нет новых непрочитанных сообщений. Тёмная башня / The Dark Tower [фантастика, фэнтези, боевик, 2017] BDRip 720p, Mvo

salma3

38 | 12

3.9 ГБ

В этой теме нет новых непрочитанных сообщений. Чудо-женщина / Wonder Woman [фантастика, фэнтези, боевик, 2017] BDRip 720p, Dub [Лицензия]

salma3

212 | 51

5.76 ГБ


Начать новую тему Ответить на тему  [ 1 сообщение ] 




Для Мосгорсуда, Роскомнадзора и рекламодателей:: mosgorsud-torrent[собачка]yandex.ru