Торрент файл
скачать торрент магнет ссылка Добавлен: 22 мар 2015, 21:11
Размер: 4.25 ГБ
Сидеров: 277
Личеров: 9
Автор

СообщениеДобавлено: 22 мар 2015, 21:11 

Не в сети
Зам. Админа
Аватара пользователя
Дата регистрации:
02 дек 2010, 12:39
Спасибо: 12625 / 214
Сообщения: 28010
Год выпуска: 2015
Жанр: боевик, триллер, драма, криминал
Режиссер: Саймон Уэст
В ролях: Джейсон Стэйтем, Майкл Ангарано, Майло Вентимилья, Доминик Гарсиа-Лоридо, Энн Хеч, София Вергара, Макс Казелла, Джейсон Александер, Хоуп Дэвис, Стэнли Туччи
О фильме:Главный герой — бывший военный Ник Эскаланте — работает в Лас-Вегасе охранником, мечтает накопить денег и навсегда уехать в Венецию. Но Ник соглашается помочь проститутке Холли, постоянно подвергающейся насилию со стороны сына крупного гангстера, из-за чего отъезд в Венецию затягивается.

Выпущено: США / Lionsgate, Cinema Seven Productions, Current Entertainment
Продолжительность: 01:32:20
Перевод: Любительский (многоголосый, закадровый) - Paradox
Авторский (одноголосый, закадровый) - М.Яроцкий
Файл
Качество: BDRip 720p
Формат: MKV
Видео: MPEG4/AVC, 5254 Кбит/сек, 1280х532 (2.40:1), 23.976 кадра/сек
Аудио 1: AC3, 6 каналов, 448 Кбит/сек | Русский - Paradox
Аудио 2: AC3, 6 каналов, 448 Кбит/сек | Русский - М.Яроцкий
Аудио 3: AC3, 6 каналов, 448 Кбит/сек | Английский
Субтитры: Русские, английские (Full, SDH)
Навигация по главам: Есть
Общее
Уникальный идентификатор : 207345889785122080651982755409659703271 (0x9BFD5DA4F4B9D8B398C8C06B35282FE7)
Полное имя : Wild Card. (2015) BDRip 720p.mkv
Формат : Matroska
Версия формата : Version 2
Размер файла : 4,25 Гбайт
Продолжительность : 1 ч. 32 м.
Общий поток : 6591 Кбит/сек
Название фильма : Wild Card. 2015
Дата кодирования : UTC 2015-03-22 13:10:43
Программа кодирования : mkvmerge v5.8.0 ('No Sleep / Pillow') built on Sep 2 2012 15:37:04
Библиотека кодирования : libebml v1.2.3 + libmatroska v1.3.0
Видео
Идентификатор : 1
Формат : AVC
Формат/Информация : Advanced Video Codec
Профиль формата : High@L4.1
Параметр CABAC формата : Да
Параметр ReFrames формата : 12 кадров
Идентификатор кодека : V_MPEG4/ISO/AVC
Продолжительность : 1 ч. 32 м.
Битрейт : 5254 Кбит/сек
Ширина : 1280 пикселей
Высота : 532 пикселя
Соотношение сторон : 2,40:1
Режим частоты кадров : Постоянный
Частота кадров : 23,976 кадра/сек
Цветовое пространство : YUV
Субдискретизация насыщенности : 4:2:0
Битовая глубина : 8 бит
Тип развёртки : Прогрессивная
Бит/(Пиксели*Кадры) : 0.322
Размер потока : 3,30 Гбайт (78%)
Заголовок : LEGi0N
Библиотека кодирования : x264 core 146 r2538 121396c
Настройки программы : cabac=1 / ref=12 / deblock=1:-3:-1 / analyse=0x3:0x113 / me=umh / subme=10 / psy=1 / psy_rd=1.00:0.15 / mixed_ref=1 / me_range=48 / chroma_me=1 / trellis=2 / 8x8dct=1 / cqm=0 / deadzone=21,11 / fast_pskip=1 / chroma_qp_offset=-3 / threads=12 / lookahead_threads=3 / sliced_threads=0 / nr=0 / decimate=1 / interlaced=0 / bluray_compat=0 / constrained_intra=0 / bframes=10 / b_pyramid=2 / b_adapt=2 / b_bias=0 / direct=1 / weightb=1 / open_gop=0 / weightp=2 / keyint=240 / keyint_min=23 / scenecut=40 / intra_refresh=0 / rc_lookahead=40 / rc=2pass / mbtree=1 / bitrate=5254 / ratetol=1.0 / qcomp=0.60 / qpmin=0 / qpmax=69 / qpstep=4 / cplxblur=20.0 / qblur=0.5 / vbv_maxrate=40000 / vbv_bufsize=48000 / nal_hrd=none / filler=0 / ip_ratio=1.40 / aq=1:1.00
Язык : English
Default : Да
Forced : Нет
Основные цвета : BT.709
Характеристики трансфера : BT.709
Коэффициенты матрицы : BT.709
Аудио #1
Идентификатор : 2
Формат : AC-3
Формат/Информация : Audio Coding 3
Расширение режима : CM (complete main)
Параметр Endianness формата : Big
Идентификатор кодека : A_AC3
Продолжительность : 1 ч. 32 м.
Вид битрейта : Постоянный
Битрейт : 448 Кбит/сек
Каналы : 6 каналов
Расположение каналов : Front: L C R, Side: L R, LFE
Частота : 48,0 КГц
Битовая глубина : 16 бит
Метод сжатия : С потерями
Размер потока : 296 Мбайт (7%)
Заголовок : P | Paradox
Язык : Russian
Default : Да
Forced : Нет
Аудио #2
Идентификатор : 3
Формат : AC-3
Формат/Информация : Audio Coding 3
Расширение режима : CM (complete main)
Параметр Endianness формата : Big
Идентификатор кодека : A_AC3
Продолжительность : 1 ч. 32 м.
Вид битрейта : Постоянный
Битрейт : 448 Кбит/сек
Каналы : 6 каналов
Расположение каналов : Front: L C R, Side: L R, LFE
Частота : 48,0 КГц
Битовая глубина : 16 бит
Метод сжатия : С потерями
Размер потока : 296 Мбайт (7%)
Заголовок : A | М.Яроцкий
Язык : Russian
Default : Нет
Forced : Нет
Аудио #3
Идентификатор : 4
Формат : AC-3
Формат/Информация : Audio Coding 3
Расширение режима : CM (complete main)
Параметр Endianness формата : Big
Идентификатор кодека : A_AC3
Продолжительность : 1 ч. 32 м.
Вид битрейта : Постоянный
Битрейт : 448 Кбит/сек
Каналы : 6 каналов
Расположение каналов : Front: L C R, Side: L R, LFE
Частота : 48,0 КГц
Битовая глубина : 16 бит
Метод сжатия : С потерями
Размер потока : 296 Мбайт (7%)
Заголовок : Original
Язык : English
Default : Нет
Forced : Нет
Текст #1
Идентификатор : 5
Формат : UTF-8
Идентификатор кодека : S_TEXT/UTF8
Идентификатор кодека/Информация : UTF-8 Plain Text
Заголовок : Full
Язык : Russian
Default : Нет
Forced : Нет
Текст #2
Идентификатор : 6
Формат : UTF-8
Идентификатор кодека : S_TEXT/UTF8
Идентификатор кодека/Информация : UTF-8 Plain Text
Заголовок : Full
Язык : English
Default : Нет
Forced : Нет
Текст #3
Идентификатор : 7
Формат : UTF-8
Идентификатор кодека : S_TEXT/UTF8
Идентификатор кодека/Информация : UTF-8 Plain Text
Заголовок : SDH
Язык : English
Default : Нет
Forced : Нет
Меню
00:00:00.000 : en:00:00:00.000
00:06:08.660 : en:00:06:08.660
00:14:12.351 : en:00:14:12.351
00:23:21.817 : en:00:23:21.817
00:27:53.296 : en:00:27:53.296
00:33:44.814 : en:00:33:44.814
00:39:56.894 : en:00:39:56.894
00:45:03.534 : en:00:45:03.534
00:49:49.194 : en:00:49:49.194
00:56:36.393 : en:00:56:36.393
01:00:54.317 : en:01:00:54.317
01:05:01.105 : en:01:05:01.105
01:10:29.558 : en:01:10:29.558
01:16:24.788 : en:01:16:24.788
01:21:46.276 : en:01:21:46.276
01:25:39.259 : en:01:25:39.259




реклама партнёра


Вернуться к началу
 Профиль  
 
   Похожие торренты   Автор   Торрент   Размер 
В этой теме нет новых непрочитанных сообщений. Шальная карта  / Wild Card (Саймон Уэст) [боевик, триллер, драма, криминал, 2015] WEB-DLRip 720p, Mvo

Dracon

86 | 5

3.12 ГБ

В этой теме нет новых непрочитанных сообщений. Шальная карта / Wild Card (Саймон Уэст) [боевик, триллер, драма, криминал, 2015] WEB-DLRip 720p, dvo

Dracon

13 | 3

2.99 ГБ

В этой теме нет новых непрочитанных сообщений. Шальная карта / Wild Card (Саймон Уэст) [боевик, триллер, драма, криминал, 2015] BDRip 1080p, Mvo+Avo+Sub

Dracon

223 | 20

9.9 ГБ

В этой теме нет новых непрочитанных сообщений. Шальная карта / Wild Card (Саймон Уэст) [2015, боевик, триллер, драма, криминал, WEB-DLRip] dvo

Nickolas3435

350 | 12

744.93 МБ

В этой теме нет новых непрочитанных сообщений. Шальная карта / Wild Card (Саймон Уэст) [боевик, триллер, драма, криминал, 2015] WEB-DLRip, Mvo

Dracon

30 | 4

1.37 ГБ

В этой теме нет новых непрочитанных сообщений. Шальная карта / Wild Card (Саймон Уэст) [боевик, триллер, драма, криминал, 2015] WEB-DLRip, dvo

Dracon

35 | 2

1.37 ГБ

В этой теме нет новых непрочитанных сообщений. Шальная карта / Wild Card (Саймон Уэст) [боевик, триллер, драма, криминал, 2015] WEB-DLRip, Mvo

Dracon

3 | 2

699.41 МБ


Начать новую тему Ответить на тему  [ 1 сообщение ] 




Для Мосгорсуда, Роскомнадзора и рекламодателей:: mosgorsud-torrent[собачка]yandex.ru