Торрент файл
скачать торрент магнет ссылка Добавлен: 21 мар 2015, 09:37
Размер: 3.34 ГБ
Сидеров: 109
Личеров: 6
Автор

СообщениеДобавлено: 21 мар 2015, 09:37 

Не в сети
Супермодератор
Аватара пользователя
Дата регистрации:
06 июн 2014, 07:51
Спасибо: 631 / 0
Сообщения: 1997
Информация о фильме
Название: Дикая
Оригинальное название: Wild
Год выхода: 2014
Жанр: Драма, биография
Режиссер: Жан-Марк Валле
В ролях: Риз Уизерспун, Лора Дерн, Томас Садоски, Гэби Хоффманн, Кевин О. Ранкин, Брайан Ван Холт, У. Эрл Браун

О фильме:
В центре сюжета Шерил Стрэйд, раздавленная неудавшимся браком и смертью матери и потерявшая всякую надежду на счастье женщина, отправляется в пешее странствие по территории Pacific Crest Trail — маршруту по наиболее высоким участкам хребта Сьерра-Невада и Каскадных гор. Испытания, выпавшие в этом опасном одиночном путешествии на долю героини, неминуемо исцеляют ее от душевных страданий, но процесс этот будет отнюдь не безболезненным.


Страна: США
Студия: Fox Searchlight Pictures, Pacific Standard
Продолжительность: 01:55:37
Перевод: Отсутствует

Файл
Кодек: MPEG-4 AVC
Качество: BDRip 720p
Видео: 3500 Кбит/с, 1280x536
Звук: Английский (АС3, 6 ch, 640 Кбит/с)
Субтитры: Русские, английские

Формат : Matroska
Версия формата : Version 2
Размер файла : 3,34 Гбайт
Продолжительность : 1 ч. 55 м.
Общий поток : 4137 Кбит/сек
Название фильма : Wild.2014.x264.BDRip.(720p)
Дата кодирования : UTC 2015-03-17 05:16:21
Программа кодирования : mkvmerge v7.7.0 ('Six Voices') 64bit built on Feb 28 2015 23:39:33
Библиотека кодирования : libebml v1.3.1 + libmatroska v1.4.2

Видео
Идентификатор : 1
Формат : AVC
Формат/Информация : Advanced Video Codec
Профиль формата : High@L4.1
Параметр CABAC формата : Да
Параметр ReFrames формата : 11 кадров
Идентификатор кодека : V_MPEG4/ISO/AVC
Продолжительность : 1 ч. 55 м.
Битрейт : 3500 Кбит/сек
Ширина : 1280 пикселей
Высота : 536 пикселей
Соотношение сторон : 2,40:1
Режим частоты кадров : Постоянный
Частота кадров : 23,976 кадра/сек
Цветовое пространство : YUV
Субдискретизация насыщенности : 4:2:0
Битовая глубина : 8 бит
Тип развёртки : Прогрессивная
Бит/(Пиксели*Кадры) : 0.213
Размер потока : 2,76 Гбайт (83%)
Заголовок : Wild.2014.x264.BDRip.(720p).by.StarbirS
Библиотека кодирования : x264 core 144 r2525 40bb568
Настройки программы : cabac=1 / ref=11 / deblock=1:-3:-3 / analyse=0x3:0x133 / me=umh / subme=10 / psy=1 / psy_rd=1.10:0.00 / mixed_ref=1 / me_range=32 / chroma_me=1 / trellis=2 / 8x8dct=1 / cqm=0 / deadzone=21,11 / fast_pskip=0 / chroma_qp_offset=-2 / threads=12 / lookahead_threads=2 / sliced_threads=0 / nr=0 / decimate=1 / interlaced=0 / bluray_compat=0 / constrained_intra=0 / bframes=8 / b_pyramid=2 / b_adapt=2 / b_bias=0 / direct=3 / weightb=1 / open_gop=1 / weightp=2 / keyint=240 / keyint_min=23 / scenecut=40 / intra_refresh=0 / rc=2pass / mbtree=0 / bitrate=3500 / ratetol=1.0 / qcomp=0.70 / qpmin=0 / qpmax=69 / qpstep=4 / cplxblur=20.0 / qblur=0.5 / ip_ratio=1.40 / pb_ratio=1.30 / aq=1:0.90
Язык : English
Default : Да
Forced : Нет

Аудио
Идентификатор : 2
Формат : AC-3
Формат/Информация : Audio Coding 3
Расширение режима : CM (complete main)
Параметр Endianness формата : Big
Идентификатор кодека : A_AC3
Продолжительность : 1 ч. 55 м.
Вид битрейта : Постоянный
Битрейт : 640 Кбит/сек
Каналы : 6 каналов
Расположение каналов : Front: L C R, Side: L R, LFE
Частота : 48,0 КГц
Битовая глубина : 16 бит
Метод сжатия : С потерями
Размер потока : 529 Мбайт (15%)
Язык : English
Default : Да
Forced : Нет

Текст #1
Идентификатор : 3
Формат : UTF-8
Идентификатор кодека : S_TEXT/UTF8
Идентификатор кодека/Информация : UTF-8 Plain Text
Заголовок : lumez
Язык : Russian
Default : Да
Forced : Нет

Текст #2
Идентификатор : 4
Формат : UTF-8
Идентификатор кодека : S_TEXT/UTF8
Идентификатор кодека/Информация : UTF-8 Plain Text
Язык : English
Default : Нет
Forced : Нет

Меню
00:00:00.000 : en:00:00:00.000
00:02:57.177 : en:00:02:57.177
00:05:48.306 : en:00:05:48.306
00:09:36.910 : en:00:09:36.910
00:12:02.013 : en:00:12:02.013
00:14:56.729 : en:00:14:56.729
00:19:38.344 : en:00:19:38.344
00:22:42.319 : en:00:22:42.319
00:26:09.443 : en:00:26:09.443
00:31:03.987 : en:00:31:03.987
00:33:42.646 : en:00:33:42.646
00:35:58.990 : en:00:35:58.990
00:40:35.600 : en:00:40:35.600
00:44:04.976 : en:00:44:04.976
00:47:38.814 : en:00:47:38.814
00:51:52.026 : en:00:51:52.026
00:54:43.071 : en:00:54:43.071
00:58:57.617 : en:00:58:57.617
01:02:13.438 : en:01:02:13.438
01:04:54.182 : en:01:04:54.182
01:07:52.402 : en:01:07:52.402
01:11:53.184 : en:01:11:53.184
01:15:15.136 : en:01:15:15.136
01:18:05.723 : en:01:18:05.723
01:20:57.936 : en:01:20:57.936
01:23:13.280 : en:01:23:13.280
01:26:39.611 : en:01:26:39.611
01:29:24.401 : en:01:29:24.401
01:32:09.149 : en:01:32:09.149
01:34:41.175 : en:01:34:41.175
01:36:37.458 : en:01:36:37.458
01:38:04.587 : en:01:38:04.587
01:41:03.182 : en:01:41:03.182
01:43:11.102 : en:01:43:11.102
01:47:12.343 : en:01:47:12.343
01:50:33.001 : en:01:50:33.001



Вернуться к началу
 Профиль Отправить личное сообщение  
 
   Похожие торренты   Автор   Торрент   Размер 
В этой теме нет новых непрочитанных сообщений. Дикая / Wild [Драма, биография, 2014] UHD BDRemux 2160p, Dub [4K]

salma3

11 | 4

42.14 ГБ

В этой теме нет новых непрочитанных сообщений. Дикая штучка / Something Wild [комедия, 1986] BDRip 720p, Dvo+Avo+Sub

salma3

69 | 22

4.74 ГБ

В этой теме нет новых непрочитанных сообщений. Дикая орхидея / Wild Orchid [Мелодрама, драма, 1989] BDRip 1080p, Dub+Mvo+Avo+Sub

salma3

72 | 1

7.59 ГБ

В этой теме нет новых непрочитанных сообщений. Разрушение / Demolition (Жан-Марк Валле / Jean-Marc Vallée) [2015г., драма, комедия, WEB-DLRip] mvo

Alfredovich

3543 | 171

1.46 ГБ

В этой теме нет новых непрочитанных сообщений. Nat Geo Wild: Дикая природа Дальнего Востока / Wild Far East (2017) HDTVRip | P1

salma3

0 | 0

629.92 МБ

В этой теме нет новых непрочитанных сообщений. Nat Geo Wild: Дикая природа Дальнего Востока / Wild Far East (2017) HDTVRip-AVC | P1

salma3

0 | 0

1.29 ГБ

В этой теме нет новых непрочитанных сообщений. Nat Geo Wild: Дикая зима / Wild winter (2016) HDTV 1080i | P1

salma3

0 | 0

2.21 ГБ


Начать новую тему Ответить на тему  [ 1 сообщение ] 




Для Мосгорсуда, Роскомнадзора и рекламодателей:: mosgorsud-torrent[собачка]yandex.ru
cron