Торрент файл
скачать торрент магнет ссылка Добавлен: 20 мар 2015, 10:53
Размер: 27.43 ГБ
Сидеров: 4
Личеров: 3
Автор

СообщениеДобавлено: 20 мар 2015, 10:53 

Не в сети
Зам. Админа
Аватара пользователя
Дата регистрации:
02 дек 2010, 12:39
Спасибо: 12651 / 214
Сообщения: 28010
Год выхода: 2014
Жанр: фантастика, приключения
Режиссер: Френсис Лоуренс
В ролях: Дженнифер Лоуренс, Лиам Хемсворт, Джош Хатчерсон, Джулианна Мур, Филип Сеймур Хоффман, Дональд Сазерленд, Вуди Харрельсон, Элизабет Бэнкс, Натали Дормер, Сэм Клафлин

О фильме:
75-ые Голодные игры изменили все. Китнисс нарушила правила, и непоколебимое до той поры деспотичное правление Капитолия пошатнулось. У людей появилась надежда, и ее символ — Сойка-пересмешница. Теперь, чтобы освободить захваченного в плен Пита и защитить своих близких, Китнисс придется сражаться в настоящих битвах и стать еще сильнее, чем на арене игр.



Качество: Blu-Ray Remux
Видео: x264, 1920x1080, 23.976 кадр/с, 17.9 Мбит/с
Аудио:
№1: русский, AC3, 6 ch, 384 Кбит/с, 48 KHz - Дублированный (iTunes)
№2: русский, DTS-HD MA, 8 ch, 5079 Кбит/с, 48 KHz - А.Матвеев
№3: английский, TrueHD, 8 ch, 4795 Кбит/с, 48 KHz
№4: английский, AC3, 2 ch, 224 Кбит/с, 48 KHz
Продолжительность: 02:02:50
Перевод: Дублированный
Субтитры: русские, английские
G:Голодные игры Сойка-пересмешница. Часть I  2014  ДБ, АП (Матвеев), СТ  Blu-Ray RemuxBDMVSTREAM0000.m2ts
   General #1
      ID : 1 (0x1)
      Complete name : G:Голодные игры Сойка-пересмешница. Часть I  2014  ДБ, АП (Матвеев), СТ  Blu-Ray RemuxBDMVSTREAM0000.m2ts
      Format : BDAV
      Format/Info : Blu-ray Video
      File size : 27.4 GiB
      Duration : 2h 2mn
      Overall bit rate mode : Variable
      Overall bit rate : 32.0 Mbps
      Maximum Overall bit rate : 35.5 Mbps
   Video #4113
      ID : 4113 (0x1011)
      Menu ID : 1 (0x1)
      Format : AVC
      Format/Info : Advanced Video Codec
      Format profile : High@L4.1
      Format settings, CABAC : Yes
      Format settings, ReFrames : 4 frames
      Codec ID : 27
      Duration : 2h 2mn
      Bit rate mode : Variable
      Maximum bit rate : 35.8 Mbps
      Width : 1 920 pixels
      Height : 1 080 pixels
      Display aspect ratio : 16:9
      Frame rate : 23.976 fps
      Color space : YUV
      Chroma subsampling : 4:2:0
      Bit depth : 8 bits
      Scan type : Progressive
   Audio #4352
      ID : 4352 (0x1100)
      Menu ID : 1 (0x1)
      Format : AC-3
      Format/Info : Audio Coding 3
      Mode extension : CM (complete main)
      Format settings, Endianness : Big
      Codec ID : 129
      Duration : 2h 2mn
      Bit rate mode : Constant
      Bit rate : 384 Kbps
      Channel(s) : 6 channels
      Channel positions : Front: L C R, Side: L R, LFE
      Sampling rate : 48.0 KHz
      Bit depth : 16 bits
      Compression mode : Lossy
      Stream size : 337 MiB (1%)
   Audio #4353
      ID : 4353 (0x1101)
      Menu ID : 1 (0x1)
      Format : DTS
      Format/Info : Digital Theater Systems
      Format profile : MA / Core
      Mode : 16
      Format settings, Endianness : Big
      Muxing mode : Stream extension
      Codec ID : 134
      Duration : 2h 2mn
      Bit rate mode : Variable
      Bit rate : Unknown / 1 509 Kbps
      Channel(s) : 8 channels / 6 channels
      Channel positions : Front: L C R, Side: L R, Back: L R, LFE / Front: L C R, Side: L R, LFE
      Sampling rate : 48.0 KHz
      Bit depth : 24 bits
      Compression mode : Lossless / Lossy
   Audio #4354
      ID : 4354 (0x1102)
      Menu ID : 1 (0x1)
      Format : TrueHD / AC-3
      Mode extension : CM (complete main)
      Format settings, Endianness : Big
      Muxing mode : Stream extension
      Codec ID : 131
      Duration : 2h 2mn
      Bit rate mode : Variable / Constant
      Bit rate : 640 Kbps
      Maximum bit rate : 7 719 Kbps
      Channel(s) : 8 channels / 6 channels
      Channel positions : Front: L C R, Side: L R, Back: L R, LFE / Front: L C R, Side: L R, LFE
      Sampling rate : 48.0 KHz
      Bit depth : 16 bits
      Stream size : 562 MiB (2%)
   Audio #4355
      ID : 4355 (0x1103)
      Menu ID : 1 (0x1)
      Format : AC-3
      Format/Info : Audio Coding 3
      Format profile : Dolby Digital
      Mode extension : CM (complete main)
      Format settings, Endianness : Big
      Codec ID : 129
      Duration : 2h 2mn
      Bit rate mode : Constant
      Bit rate : 224 Kbps
      Channel(s) : 2 channels
      Channel positions : Front: L R
      Sampling rate : 48.0 KHz
      Bit depth : 16 bits
      Compression mode : Lossy
      Stream size : 197 MiB (1%)
   Text #4608
      ID : 4608 (0x1200)
      Menu ID : 1 (0x1)
      Format : PGS
      Codec ID : 144
   Text #4609
      ID : 4609 (0x1201)
      Menu ID : 1 (0x1)
      Format : PGS
      Codec ID : 144
   Text #4610
      ID : 4610 (0x1202)
      Menu ID : 1 (0x1)
      Format : PGS
      Codec ID : 144







Вернуться к началу
 Профиль  
 
   Похожие торренты   Автор   Торрент   Размер 
В этой теме нет новых непрочитанных сообщений. Голодные игры: Сойка-пересмешница. Часть I / The Hunger Games: Mockingjay - Part 1 [фантастика, боевик, триллер, 2014] UHD BDRemux 2160p, Dub [4K] [Лицензия]

salma3

0 | 3

76.91 ГБ

В этой теме нет новых непрочитанных сообщений. Голодные игры: Сойка-пересмешница. Часть II / The Hunger Games: Mockingjay - Part 2 [Фантастика, Приключения, 2015] WEB-DL 1080p, Dub [Звук с CamRip]

salma3

2 | 1

4.83 ГБ

В этой теме нет новых непрочитанных сообщений. Голодные игры: Сойка-пересмешница. Часть II / The Hunger Games: Mockingjay - Part 2 [Фантастика, Приключения, 2015] BDRip 1080p 3D-Video, Dub+Sub [CamRip]

salma3

482 | 86

9.16 ГБ

В этой теме нет новых непрочитанных сообщений. Голодные игры: Сойка-пересмешница. Часть II / The Hunger Games: Mockingjay - Part 2 [Фантастика, триллер, военный, 2015] BDRemux 1080р, Dub [iTunes]

marya111

24 | 16

24.56 ГБ

В этой теме нет новых непрочитанных сообщений. Голодные игры: Сойка-пересмешница. Часть II / The Hunger Games: Mockingjay - Part 2 [фантастика, приключения, 2015] HDRip, Dub [Чистый звук]

salma3

3241 | 99

2.06 ГБ

В этой теме нет новых непрочитанных сообщений. Голодные игры: Сойка-пересмешница. Часть II / The Hunger Games: Mockingjay - Part 2 [фантастика, приключения, 2015] HDRip, Dub [чистый звук]

salma3

35 | 2

1.37 ГБ

В этой теме нет новых непрочитанных сообщений. Голодные игры: Сойка-пересмешница. Часть II / The Hunger Games: Mockingjay - Part 2 [фантастика, триллер, военный, 2015] BDRip-AVC, Dub [iTunes]

salma3

56 | 27

2.85 ГБ


Начать новую тему Ответить на тему  [ 1 сообщение ] 




Для Мосгорсуда, Роскомнадзора и рекламодателей:: mosgorsud-torrent[собачка]yandex.ru
cron