Торрент файл
скачать торрент магнет ссылка Добавлен: 17 мар 2015, 23:24
Размер: 12.24 ГБ
Сидеров: 58
Личеров: 6
Автор

СообщениеДобавлено: 17 мар 2015, 23:24 

Не в сети
Супермодератор
Аватара пользователя
Дата регистрации:
06 июн 2014, 07:51
Спасибо: 631 / 0
Сообщения: 1997
Информация о фильме
Название: Джеймс Браун: Путь наверх
Оригинальное название: Get on Up
Год выпуска: 2014
Жанр: Драма, биография, музыка
Выпущено: США, Imagine Entertainment, Jagged Films, Wyolah Films
Режиссер: Тейт Тейлор
В ролях: Чэдвик Боузмэн, Нелсан Эллис, Виола Дэвис, Октавия Спенсер, Дэн Эйкройд, Ленни Джеймс, Фред Меламед, Крэйг Робинсон, Джилл Скотт, Джош Хопкинс

О фильме:
В основу фильма легла невероятная история жизни кумира миллионов, иконы сцены - Джеймса Брауна. Его боготворили не только фанаты, но и музыканты. Он был легендой эпохи - его имя одним из первых включили в Зал славы рок-н-ролла.

Качество: BDRip (1080p)
Видео: MPEG-4 AVC, 9716 Кбит/с, 1920x1040
Аудио: Русский (АС3, 6 ch, 448 Кбит/с), (DTS, 6 ch, 768 Кбит/с), английский (DTS, 6 ch, 1510 Кбит/с, (АС3, 2 ch, 192 Кбит/с)
Размер: 12.24 ГБ
Продолжительность: 02:18:50
Перевод: Дублированный [лицензия]
Субтитры: Русские, английские

Семпл

Общее
Уникальный идентификатор : 174297590096867049593708846996834084858 (0x83207EAB39FB042FADBCFA95A4A9E7FA)
Полное имя : E:Get.on.Up.2014.BluRay.1080p.DTS.x264-CHD.mkv
Формат : Matroska
Версия формата : Version 4 / Version 2
Размер файла : 12,2 Гбайт
Продолжительность : 2 ч. 18 м.
Общий поток : 12,6 Мбит/сек
Название фильма : Get.on.Up.2014.BluRay.1080p.DTS.x264-CHD
Дата кодирования : UTC 2015-03-13 04:06:55
Программа кодирования : mkvmerge v7.3.0 ('Nouages') 64bit built on Oct 22 2014 18:53:34
Библиотека кодирования : libebml v1.3.0 + libmatroska v1.4.1
_STATISTICS_WRITING_APP : mkvmerge v7.3.0 ('Nouages') 64bit built on Oct 22 2014 18:53:34
_STATISTICS_WRITING_DATE_UTC : 2015-03-13 04:06:55
_STATISTICS_TAGS : BPS DURATION NUMBER_OF_FRAMES NUMBER_OF_BYTES
DURATION : 02:18:50.326000000
NUMBER_OF_FRAMES : 780968
NUMBER_OF_BYTES : 1571307616
Видео
Идентификатор : 1
Формат : AVC
Формат/Информация : Advanced Video Codec
Профиль формата : High@L4.1
Параметр CABAC формата : Да
Параметр ReFrames формата : 4 кадра
Идентификатор кодека : V_MPEG4/ISO/AVC
Продолжительность : 2 ч. 18 м.
Битрейт : 9716 Кбит/сек
Ширина : 1920 пикселей
Высота : 1040 пикселей
Соотношение сторон : 1,85:1
Режим частоты кадров : Постоянный
Частота кадров : 23,976 кадра/сек
Цветовое пространство : YUV
Субдискретизация насыщенности : 4:2:0
Битовая глубина : 8 бит
Тип развёртки : Прогрессивная
Бит/(Пиксели*Кадры) : 0.203
Размер потока : 9,17 Гбайт (75%)
Заголовок : Anonymous@CHD
Библиотека кодирования : x264 core 142 r2491 24e4fed
Настройки программы : cabac=1 / ref=4 / deblock=1:-3:-3 / analyse=0x3:0x113 / me=umh / subme=10 / psy=1 / psy_rd=1.00:0.05 / mixed_ref=1 / me_range=32 / chroma_me=1 / trellis=2 / 8x8dct=1 / cqm=0 / deadzone=21,11 / fast_pskip=0 / chroma_qp_offset=-2 / threads=18 / lookahead_threads=1 / sliced_threads=0 / nr=0 / decimate=1 / interlaced=0 / bluray_compat=0 / constrained_intra=0 / bframes=5 / b_pyramid=2 / b_adapt=2 / b_bias=0 / direct=3 / weightb=1 / open_gop=0 / weightp=2 / keyint=250 / keyint_min=23 / scenecut=40 / intra_refresh=0 / rc=2pass / mbtree=0 / bitrate=9716 / ratetol=1.0 / qcomp=0.70 / qpmin=0 / qpmax=69 / qpstep=4 / cplxblur=20.0 / qblur=0.5 / ip_ratio=1.40 / pb_ratio=1.30 / aq=2:1.00
Язык : English
Default : Да
Forced : Нет
DURATION : 02:18:50.316000000
NUMBER_OF_FRAMES : 199728
NUMBER_OF_BYTES : 10106064026
_STATISTICS_WRITING_APP : mkvmerge v7.3.0 ('Nouages') 64bit built on Oct 22 2014 18:53:34
_STATISTICS_WRITING_DATE_UTC : 2015-03-13 04:06:55
_STATISTICS_TAGS : BPS DURATION NUMBER_OF_FRAMES NUMBER_OF_BYTES
Аудио #1
Идентификатор : 2
Формат : DTS
Формат/Информация : Digital Theater Systems
Режим : 16
Параметр Endianness формата : Big
Идентификатор кодека : A_DTS
Продолжительность : 2 ч. 18 м.
Вид битрейта : Постоянный
Битрейт : 768 Кбит/сек
Каналы : 6 каналов
Расположение каналов : Front: L C R, Side: L R, LFE
Частота : 48,0 КГц
Битовая глубина : 24 бит
Метод сжатия : С потерями
Размер потока : 763 Мбайт (6%)
Заголовок : Blu-Ray CEE
Язык : Russian
Default : Да
Forced : Нет
Аудио #2
Идентификатор : 3
Формат : AC-3
Формат/Информация : Audio Coding 3
Расширение режима : CM (complete main)
Параметр Endianness формата : Big
Идентификатор кодека : A_AC3
Продолжительность : 2 ч. 18 м.
Вид битрейта : Постоянный
Битрейт : 448 Кбит/сек
Каналы : 6 каналов
Расположение каналов : Front: L C R, Side: L R, LFE
Частота : 48,0 КГц
Битовая глубина : 16 бит
Метод сжатия : С потерями
Размер потока : 445 Мбайт (4%)
Заголовок : Blu-Ray CEE
Язык : Russian
Default : Нет
Forced : Нет
Аудио #3
Идентификатор : 4
Формат : DTS
Формат/Информация : Digital Theater Systems
Режим : 16
Параметр Endianness формата : Big
Идентификатор кодека : A_DTS
Продолжительность : 2 ч. 18 м.
Вид битрейта : Постоянный
Битрейт : 1509 Кбит/сек
Каналы : 6 каналов
Расположение каналов : Front: L C R, Side: L R, LFE
Частота : 48,0 КГц
Битовая глубина : 24 бит
Метод сжатия : С потерями
Размер потока : 1,46 Гбайт (12%)
Заголовок : English DTS 5.1 1509Kbps
Язык : English
Default : Нет
Forced : Нет
Аудио #4
Идентификатор : 5
Формат : AC-3
Формат/Информация : Audio Coding 3
Профиль формата : Dolby Digital
Расширение режима : CM (complete main)
Параметр Endianness формата : Big
Идентификатор кодека : A_AC3
Продолжительность : 2 ч. 18 м.
Вид битрейта : Постоянный
Битрейт : 192 Кбит/сек
Каналы : 2 канала
Расположение каналов : Front: L R
Частота : 48,0 КГц
Битовая глубина : 16 бит
Метод сжатия : С потерями
Размер потока : 191 Мбайт (2%)
Заголовок : Commentary with Tate Taylor
Язык : English
Default : Нет
Forced : Нет
Текст #1
Идентификатор : 6
Формат : UTF-8
Идентификатор кодека : S_TEXT/UTF8
Идентификатор кодека/Информация : UTF-8 Plain Text
Язык : Russian
Default : Да
Forced : Нет
Текст #2
Идентификатор : 7
Формат : UTF-8
Идентификатор кодека : S_TEXT/UTF8
Идентификатор кодека/Информация : UTF-8 Plain Text
Язык : Russian
Default : Нет
Forced : Нет
Текст #3
Идентификатор : 8
Формат : UTF-8
Идентификатор кодека : S_TEXT/UTF8
Идентификатор кодека/Информация : UTF-8 Plain Text
Заголовок : English
Язык : English
Default : Нет
Forced : Нет
Меню
00:00:00.000 : en:00:00:00.000
00:06:14.165 : en:00:06:14.165
00:12:15.026 : en:00:12:15.026
00:20:25.015 : en:00:20:25.015
00:28:16.403 : en:00:28:16.403
00:33:14.618 : en:00:33:14.618
00:40:56.204 : en:00:40:56.204
00:46:56.230 : en:00:46:56.230
00:53:33.961 : en:00:53:33.961
00:59:33.487 : en:00:59:33.487
01:05:10.365 : en:01:05:10.365
01:09:50.895 : en:01:09:50.895
01:15:46.834 : en:01:15:46.834
01:22:56.513 : en:01:22:56.513
01:32:55.779 : en:01:32:55.779
01:42:11.125 : en:01:42:11.125
01:50:40.509 : en:01:50:40.509
01:58:14.379 : en:01:58:14.379
02:04:31.506 : en:02:04:31.506
02:10:59.852 : en:02:10:59.852



Вернуться к началу
 Профиль Отправить личное сообщение  
 
   Похожие торренты   Автор   Торрент   Размер 
В этой теме нет новых непрочитанных сообщений. Голос улиц / Straight Outta Compton [драма, биография, музыка, 2015] BDRip 1080p, Dub [лицензия]

salma3

92 | 4

7.76 ГБ

В этой теме нет новых непрочитанных сообщений. Любовь и милосердие / Love & Mercy (Уильям Полад) [драма, биография, музыка, 2014] BDRip 1080p, Dub

Dracon

1 | 0

8.9 ГБ

В этой теме нет новых непрочитанных сообщений. Танцовщица / La danseuse [драма, биография, музыка, 2016] BDRip 1080p, Mvo

salma3

177 | 97

8.09 ГБ

В этой теме нет новых непрочитанных сообщений. Голос улиц / Straight Outta Compton (Ф. Гэри Грей) [драма, биография, музыка, 2015] BDRip-AVC, Dub [лицензия]

Dracon

348 | 13

1.46 ГБ

В этой теме нет новых непрочитанных сообщений. Танцовщица / La danseuse ( драма, биография, музыка, 2016) BDRip 1080p | iTunes

marya111

150 | 29

8.24 ГБ

В этой теме нет новых непрочитанных сообщений. Любовь и милосердие / Love & Mercy (Уильям Полад) [драма, биография, музыка, 2014] BDRip 720p, Dub

Dracon

2 | 0

5.62 ГБ

В этой теме нет новых непрочитанных сообщений. Телохранитель / The Bodyguard [триллер, драма, мелодрама, музыка,1992] BDRip 1080p, Dub+Sub [лицензия]

salma3

76 | 31

7.76 ГБ


Начать новую тему Ответить на тему  [ 1 сообщение ] 




Для Мосгорсуда, Роскомнадзора и рекламодателей:: mosgorsud-torrent[собачка]yandex.ru
cron