Торрент файл
скачать торрент магнет ссылка Добавлен: 17 мар 2015, 16:33
Размер: 4.01 ГБ
Сидеров: 333
Личеров: 8
Автор

СообщениеДобавлено: 17 мар 2015, 16:33 

Не в сети
Зам. Админа
Аватара пользователя
Дата регистрации:
02 дек 2010, 12:39
Спасибо: 12625 / 214
Сообщения: 28010
Год выпуска: 2014
Жанр: Фантастика, драма, приключения
Режиссер: Кристофер Нолан
В ролях: Мэттью МакКонахи, Энн Хэтэуэй, Джессика Честейн, Маккензи Фой, Майкл Кейн, Дэвид Гяси, Уэс Бентли, Кейси Аффлек, Джон Литгоу, Мэтт Дэймон, Тофер Грэйс, Эллен Бёрстин, Элиес Габел, Тимоти Чаламет, Дэвид Ойелоуо, Коллетт Вульф, Фрэнсис З. МакКарти, Билл Ирвин, Эндрю Борба, Уильям Дивэйн

Описание: Когда засуха приводит человечество к продовольственному кризису, коллектив исследователей и учёных отправляется сквозь червоточину (которая предположительно соединяет области пространства-времени через большое расстояние) в путешествие, чтобы превзойти прежние ограничения для космических путешествий человека и переселить человечество на другую планету.



Выпущено: США, Великобритания / Legendary Pictures, Lynda Obst Productions, Paramount Pictures
Продолжительность: 02:49:03
Перевод: Профессиональный многоголосый

Качество: BDRip (AVC)
Видео: MPEG-4 AVC, 2500 Кбит/с, 1024x576, 23.976 кадр/с
Аудио #1: Русский (AC3, 6 ch, 448 Кбит/с) / Профессиональный многоголосый (Омикрон)
Аудио #2: Английский (AC3, 6 ch, 448 Кбит/с)
Субтитры: Русские, английские

Семпл


x264 [info]: frame I:1840 Avg QP:14.22 size: 75467
x264 [info]: frame P:55139 Avg QP:17.65 size: 26283
x264 [info]: frame B:186232 Avg QP:19.08 size: 8489
x264 [info]: consecutive B-frames: 3.1% 4.1% 8.4% 22.0% 16.6% 24.1% 7.3% 7.2% 2.5% 1.3% 0.9% 1.1% 0.4% 0.2% 0.2% 0.5%
********************************************************************************************************************************************
Общее
Уникальный идентификатор : 246561167931875101711377796466670623535 (0xB97DF422088E5ECFA8AE8BB80028DB2F)
Полное имя : D:Mои раздачиInterstellar.2014.BDRip.(AVC)-MediaClub.mkv
Формат : Matroska
Версия формата : Version 4 / Version 2
Размер файла : 4,01 Гбайт
Продолжительность : 2 ч. 49 м.
Общий поток : 3398 Кбит/сек
Название фильма : -=MediaClub-kaspr=-
Дата кодирования : UTC 2015-03-17 11:21:54
Программа кодирования : mkvmerge v6.9.1 ('Blue Panther') 64bit built on Apr 18 2014 18:23:38
Библиотека кодирования : libebml v1.3.0 + libmatroska v1.4.1

Видео
Идентификатор : 1
Формат : AVC
Формат/Информация : Advanced Video Codec
Профиль формата : High@L4.1
Параметр CABAC формата : Да
Параметр ReFrames формата : 10 кадров
Идентификатор кодека : V_MPEG4/ISO/AVC
Продолжительность : 2 ч. 49 м.
Битрейт : 2500 Кбит/сек
Ширина : 1024 пикселя
Высота : 576 пикселей
Соотношение сторон : 16:9
Режим частоты кадров : Постоянный
Частота кадров : 23,976 кадра/сек
Цветовое пространство : YUV
Субдискретизация насыщенности : 4:2:0
Битовая глубина : 8 бит
Тип развёртки : Прогрессивная
Бит/(Пиксели*Кадры) : 0.177
Размер потока : 2,87 Гбайт (72%)
Заголовок : -=MediaClub-kaspr=-
Библиотека кодирования : x264 core 142 r2431+42 c69a006 tMod [8-bit@all X86_64]
Настройки программы : cabac=1 / ref=10 / deblock=1:-3:-3 / analyse=0x3:0x113 / me=umh / subme=11 / psy=1 / fade_compensate=0.00 / psy_rd=1.00:0.20 / mixed_ref=1 / me_range=32 / chroma_me=1 / trellis=2 / 8x8dct=1 / cqm=0 / deadzone=21,11 / fast_pskip=0 / chroma_qp_offset=-3 / threads=12 / lookahead_threads=3 / sliced_threads=0 / nr=0 / decimate=0 / interlaced=0 / bluray_compat=0 / constrained_intra=0 / fgo=0 / bframes=15 / b_pyramid=2 / b_adapt=2 / b_bias=0 / direct=3 / weightb=1 / open_gop=0 / weightp=2 / keyint=240 / keyint_min=23 / scenecut=40 / intra_refresh=0 / rc=2pass / mbtree=0 / bitrate=2500 / ratetol=1.0 / qcomp=0.60 / qpmin=0:0:0 / qpmax=69:69:69 / qpstep=4 / cplxblur=20.0 / qblur=0.5 / ip_ratio=1.40 / pb_ratio=1.30 / aq=4:0.80 / aq-sensitivity=10.00 / aq-factor=1.00:1.00:1.00 / aq2=0 / aq3=0
Default : Да
Forced : Нет

Аудио #1
Идентификатор : 2
Формат : AC-3
Формат/Информация : Audio Coding 3
Расширение режима : CM (complete main)
Параметр Endianness формата : Big
Идентификатор кодека : A_AC3
Продолжительность : 2 ч. 49 м.
Вид битрейта : Постоянный
Битрейт : 448 Кбит/сек
Каналы : 6 каналов
Расположение каналов : Front: L C R, Side: L R, LFE
Частота : 48,0 КГц
Битовая глубина : 16 бит
Метод сжатия : С потерями
Размер потока : 542 Мбайт (13%)
Заголовок : MVO
Язык : Russian
Default : Да
Forced : Нет

Аудио #2
Идентификатор : 3
Формат : AC-3
Формат/Информация : Audio Coding 3
Расширение режима : CM (complete main)
Параметр Endianness формата : Big
Идентификатор кодека : A_AC3
Продолжительность : 2 ч. 49 м.
Вид битрейта : Постоянный
Битрейт : 448 Кбит/сек
Каналы : 6 каналов
Расположение каналов : Front: L C R, Side: L R, LFE
Частота : 48,0 КГц
Битовая глубина : 16 бит
Метод сжатия : С потерями
Размер потока : 542 Мбайт (13%)
Язык : English
Default : Нет
Forced : Нет

Текст #1
Идентификатор : 4
Формат : UTF-8
Идентификатор кодека : S_TEXT/UTF8
Идентификатор кодека/Информация : UTF-8 Plain Text
Язык : Russian
Default : Нет
Forced : Нет

Текст #2
Идентификатор : 5
Формат : UTF-8
Идентификатор кодека : S_TEXT/UTF8
Идентификатор кодека/Информация : UTF-8 Plain Text
Заголовок : full
Язык : English
Default : Нет
Forced : Нет

Текст #3
Идентификатор : 6
Формат : UTF-8
Идентификатор кодека : S_TEXT/UTF8
Идентификатор кодека/Информация : UTF-8 Plain Text
Заголовок : SDH
Язык : English
Default : Нет
Forced : Нет

Меню
00:00:00.000 : :Chapter 01
00:09:35.283 : :Chapter 02
00:17:12.281 : :Chapter 03
00:25:00.707 : :Chapter 04
00:35:45.101 : :Chapter 05
00:42:16.825 : :Chapter 06
00:50:19.558 : :Chapter 07
00:54:47.784 : :Chapter 08
00:58:59.369 : :Chapter 09
01:06:14.971 : :Chapter 10
01:17:28.018 : :Chapter 11
01:25:31.960 : :Chapter 12
01:34:31.957 : :Chapter 13
01:46:14.659 : :Chapter 14
01:55:34.510 : :Chapter 15
02:02:14.327 : :Chapter 16
02:12:56.802 : :Chapter 17
02:20:53.778 : :Chapter 18
02:35:12.052 : :Chapter 19
02:43:59.830 : :Chapter 20
Rip by kaspr
Переведено и озвучено студией «Омикрон», при поддержки HDClub

Сохранены оригинальные главы как на Blu-ray.

Задействовано 10 актеров. Майкла Кейна (Professor Brand) озвучивает Владислав Пупков - Легенда Дубляжа.
Перевод и озвучивание осуществлено в рамках сервиса "Озвучивание" HDClub. Спонсоры: nod, pppaul, MishGan2008, diezel, McClaud, kinomexanik, CristaS, AmigoDen, xmods, Bellerofont, Fenix_Zz, ultrajeka, shagun, Кириллка, Ser2207, Bluray, rassvet, DaniLch, motpac, melanin, Juve, TiberianZ, rivaspb, PoHHaN, Confidence, darkzim, Dabrynych, iiiMia, BEZYMNIY, maxv, hardkatok, Pertcev, Duff82, king3, lemonarium, tambov68, ADIC, Evgecha_72, Ex1l, GlebBorschev, anton48, FilimoniC, mcevg, SharkHD, niksource, Steal, ZeRoNe, ip_komyagin, UltraHD, John05, Tahoe, Dud, october2, urvakanner, baivlad, goriathid, paha1, Mockatt, G_R_U, Аркан75, four_finger, AlexHD, Ignessio, lex077, irrlicht, sum, Dark_Victor, dkolot.




реклама партнёра


Вернуться к началу
 Профиль  
 
   Похожие торренты   Автор   Торрент   Размер 
В этой теме нет новых непрочитанных сообщений. Интерстеллар / Interstellar (Кристофер Нолан) [фантастика, боевик, приключения, 2014] BDRip, Dub+Sub [IMAX Edition | Лицензия]

Dracon

335 | 10

2.91 ГБ

В этой теме нет новых непрочитанных сообщений. Интерстеллар / Interstellar (Кристофер Нолан) [фантастика, боевик, приключения, 2014] BDRip-AVC, Dub+Sub [IMAX Edition / iTunes]

Dracon

553 | 11

3.1 ГБ

В этой теме нет новых непрочитанных сообщений. Интерстеллар / Interstellar (Кристофер Нолан) [фантастика, боевик, приключения, 2014] BDRip 1080p, Dub+Sub [IMAX Edition | Лицензия]

Dracon

598 | 50

21.68 ГБ

В этой теме нет новых непрочитанных сообщений. Интерстеллар / Interstellar (Кристофер Нолан) [фантастика, боевик, приключения, 2014] BDRip 720p, Dub+Sub [IMAX Edition | Лицензия]

Dracon

169 | 13

9.03 ГБ

В этой теме нет новых непрочитанных сообщений. Интерстеллар / Interstellar (Кристофер Нолан) [фантастика, боевик, приключения, 2014] BDRip 720p, Dub+Sub [IMAX Edition | iTunes]

Dracon

1878 | 52

4.89 ГБ

В этой теме нет новых непрочитанных сообщений. Интерстеллар / Interstellar (Кристофер Нолан) [фантастика, боевик, приключения, 2014] BDRip, Dub [IMAX Edition | iTunes Russia]

Dracon

1040 | 23

2.18 ГБ

В этой теме нет новых непрочитанных сообщений. Интерстеллар / Interstellar (Кристофер Нолан) [фантастика, боевик, приключения, 2014] BDRip 1080p, Dub+Sub [IMAX Edition / iTunes Russia]

Dracon

304 | 10

14.04 ГБ


Начать новую тему Ответить на тему  [ 1 сообщение ] 




Для Мосгорсуда, Роскомнадзора и рекламодателей:: mosgorsud-torrent[собачка]yandex.ru