Торрент файл
скачать торрент магнет ссылка Добавлен: 15 мар 2015, 23:59
Размер: 9.8 ГБ
Сидеров: 22
Личеров: 7
Автор

СообщениеДобавлено: 15 мар 2015, 23:59 

Не в сети
Супермодератор
Аватара пользователя
Дата регистрации:
06 июн 2014, 07:51
Спасибо: 623 / 0
Сообщения: 2001
Название: Эль-Ниньо
Оригинальное название: El Niño
Год выпуска: 2014
Жанр: Триллер, драма
Режиссер: Даниэль Монсон
В ролях: Иэн МакШейн, Луис Тосар, Серхи Лопес, Хесус Кастро, Барбара Ленни, Хесус Карроса, Мариам Башир, Эдуард Фернандес, Мусса Мааскри

Описание: Двое молодых парней, Ниньо и Компи, ввязываются в мир торговли наркотиками на Гибралтаре. Риск, эмоции и большие деньги - хороший стимул для тех, кто сможет пересечь пролив в загруженной гашишем лодке, незаметно рассекая волны. Иисус и Ева, агенты полиции по борьбе с наркотиками, давно пытаются доказать, что этот трафик — один из главных путей проникновения кокаина в Европу. Судьбы персонажей, находящихся по обе стороны закона, в конце концов пересекаются.

Страна: Испания, Canal Sur Televisión S.A., Canal+ España, Eurimages
Продолжительность: 02:16:23
Перевод: Любительский двухголосый (DeadSno & den904)

Качество: BDRip 1080p
Видео: MPEG-4 AVC, 9012 Кбит/с, 1920х1040
Аудио rus: AC3, 6 ch, 640 Кбит/с
Аудио spa: AC3, 6 ch, 640 Кбит/с

Полное имя : D:TorrentEl.Niño.2014.2014.BDRip.(1080p).tahiy.mkv
Формат : Matroska
Версия формата : Version 2
Размер файла : 9,80 Гбайт
Продолжительность : 2 ч. 16 м.
Общий поток : 10,3 Мбит/сек
Название фильма : El.Niño.2014.BDRip.(1080p).tahiy
Дата кодирования : UTC 2015-03-14 14:20:01
Программа кодирования : mkvmerge v4.0.0 ('The Stars were mine') сборка от Jun 5 2010 17:44:09
Библиотека кодирования : libebml v1.0.0 + libmatroska v1.0.0

Видео
Идентификатор : 1
Формат : AVC
Формат/Информация : Advanced Video Codec
Профиль формата : High@L4.1
Параметр CABAC формата : Да
Параметр ReFrames формата : 4 кадра
Идентификатор кодека : V_MPEG4/ISO/AVC
Продолжительность : 2 ч. 16 м.
Битрейт : 9012 Кбит/сек
Ширина : 1920 пикселей
Высота : 1040 пикселей
Соотношение сторон : 1,85:1
Режим частоты кадров : Постоянный
Частота кадров : 24,000 кадра/сек
Цветовое пространство : YUV
Субдискретизация насыщенности : 4:2:0
Битовая глубина : 8 бит
Тип развёртки : Прогрессивная
Бит/(Пиксели*Кадры) : 0.188
Размер потока : 8,39 Гбайт (86%)
Заголовок : El.Niño.2014.BDRip.(1080p).tahiy
Библиотека кодирования : x264 core 130 r2273 b3065e6
Настройки программы : cabac=1 / ref=4 / deblock=1:-2:-2 / analyse=0x3:0x113 / me=umh / subme=10 / psy=1 / psy_rd=1.00:0.20 / mixed_ref=1 / me_range=32 / chroma_me=1 / trellis=2 / 8x8dct=1 / cqm=0 / deadzone=21,11 / fast_pskip=0 / chroma_qp_offset=-3 / threads=6 / lookahead_threads=1 / sliced_threads=0 / nr=0 / decimate=0 / interlaced=0 / bluray_compat=0 / constrained_intra=0 / bframes=8 / b_pyramid=2 / b_adapt=2 / b_bias=0 / direct=3 / weightb=1 / open_gop=0 / weightp=2 / keyint=240 / keyint_min=23 / scenecut=40 / intra_refresh=0 / rc_lookahead=40 / rc=2pass / mbtree=0 / bitrate=9012 / ratetol=1.0 / qcomp=0.60 / qpmin=0 / qpmax=69 / qpstep=4 / cplxblur=20.0 / qblur=0.5 / vbv_maxrate=50000 / vbv_bufsize=62500 / nal_hrd=none / ip_ratio=1.40 / pb_ratio=1.30 / aq=1:1.00
Язык : Spanish
Default : Да
Forced : Нет

Аудио #1
Идентификатор : 2
Формат : AC-3
Формат/Информация : Audio Coding 3
Расширение режима : CM (complete main)
Параметр Endianness формата : Big
Идентификатор кодека : A_AC3
Продолжительность : 2 ч. 16 м.
Вид битрейта : Постоянный
Битрейт : 640 Кбит/сек
Каналы : 6 каналов
Расположение каналов : Front: L C R, Side: L R, LFE
Частота : 48,0 КГц
Битовая глубина : 16 бит
Метод сжатия : С потерями
Размер потока : 624 Мбайт (6%)
Заголовок : DeadSno & den904
Язык : Russian
Default : Да
Forced : Нет

Аудио #2
Идентификатор : 3
Формат : AC-3
Формат/Информация : Audio Coding 3
Расширение режима : CM (complete main)
Параметр Endianness формата : Big
Идентификатор кодека : A_AC3
Продолжительность : 2 ч. 16 м.
Вид битрейта : Постоянный
Битрейт : 640 Кбит/сек
Каналы : 6 каналов
Расположение каналов : Front: L C R, Side: L R, LFE
Частота : 48,0 КГц
Битовая глубина : 16 бит
Метод сжатия : С потерями
Размер потока : 624 Мбайт (6%)
Заголовок : Spanish
Язык : Spanish
Default : Нет
Forced : Нет




реклама партнёра


Вернуться к началу
 Профиль Отправить личное сообщение  
 
   Похожие торренты   Автор   Торрент   Размер 
В этой теме нет новых непрочитанных сообщений. Эль-Ниньо / El Niño (Даниэль Монсон) [Боевик, Детектив, Криминал, Триллер, 2014] BDRip, dvo

Dracon

78 | 2

2.05 ГБ

В этой теме нет новых непрочитанных сообщений. Эль-Ниньо / El Nino (Даниэль Монсон) [Боевик, Детектив, Криминал, Триллер, 2014] HDRip, dvo

Dracon

12 | 2

1.37 ГБ

В этой теме нет новых непрочитанных сообщений. 13 грехов / 13 Sins (Даниэль Штамм) [Триллер, Ужасы, 2013] BDRip 1080p, dub+sub [НТВ+]

Dracon

103 | 4

7.77 ГБ

В этой теме нет новых непрочитанных сообщений. Живое / Life [2017] ( Даниэль Эспиноса) [Ужасы, фантастика, триллер , BDRip 1080p][HEVC][DD5.1] [Dub Rus, Ukr , Englis + Subs Rus, Ukr , ENG] [ iTunes]

Враг Нароода

14 | 16

7.85 ГБ

В этой теме нет новых непрочитанных сообщений. Трейсеры / Tracers (Даниэль Бенмаур) [Боевик, 2015] BDRip 1080p [Студия Пиратского Дубляжа]

Dracon

34 | 9

7.9 ГБ

В этой теме нет новых непрочитанных сообщений. 13 грехов / 13 Sins (Даниэль Штамм) [Триллер, Ужасы, 2013] BDRip-AVC, dub+sub [НТВ+]

Dracon

441 | 41

2.18 ГБ

В этой теме нет новых непрочитанных сообщений. 13 грехов / 13 Sins (Даниэль Штамм) [Триллер, Ужасы, 2013] BDRemux 1080p, dub+sub [чистый звук]

Dracon

393 | 53

16.75 ГБ


Начать новую тему Ответить на тему  [ 1 сообщение ] 




Для Мосгорсуда, Роскомнадзора и рекламодателей:: mosgorsud-torrent[собачка]yandex.ru