Торрент файл
скачать торрент магнет ссылка Добавлен: 17 мар 2015, 11:19
Размер: 3.1 ГБ
Сидеров: 553
Личеров: 11
Автор

СообщениеДобавлено: 15 мар 2015, 21:06 

Не в сети
Зам. Админа
Аватара пользователя
Дата регистрации:
02 дек 2010, 12:39
Спасибо: 12620 / 214
Сообщения: 28049
Год выхода: 2014
Жанр: фантастика, боевик, детектив, приключения
Режиссер: Кристофер Нолан
В ролях: Мэттью МакКонахи, Энн Хэтэуэй, Кейси Аффлек, Джессика Честейн, Тофер Грейс, Уэс Бентли, Майкл Кейн, Маккензи Фой, Джон Литгоу, Эллен Бёрстин

О фильме:
Когда засуха приводит человечество к продовольственному кризису, коллектив исследователей и учёных отправляется сквозь червоточину (которая предположительно соединяет области пространства-времени через большое расстояние) в путешествие, чтобы превзойти прежние ограничения для космических путешествий человека и переселить человечество на другую планету.



Выпущено: США, Великобритания / Legendary Pictures, Lynda Obst Productions, Paramount Pictures, Warner Bros.
Продолжительность: 02:49:03
Озвучивание: Дублированное

Качество: BDRip (AVC)
Видео: MPEG-4 AVC, 1788 Кбит/с, 1024x576
Аудио: Русский (AC3, 6 ch, 384 Кбит/с), английский (AC3, 6 ch, 448 Кбит/с)
Субтитры: Русские, английские
Дополнительно: Сохранены оригинальные чаптеры



General
Unique ID : 229761804425041236660195910144927426935 (0xACDA8390621A8E0385E711B8DE9B6977)
Complete name : C:Interstellar.2014.D.BDRip.AVC.ExKinoRay.mkv
Format : Matroska
Format version : Version 4 / Version 2
File size : 3.10 GiB
Duration : 2h 49mn
Overall bit rate : 2 622 Kbps
Movie name : Interstellar 2014 from ExKinoRay
Encoded date : UTC 2015-03-15 13:22:30
Writing application : mkvmerge v6.6.0 ('The Edge Of The In Between') built on Dec 1 2013 17:55:00
Writing library : libebml v1.3.0 + libmatroska v1.4.1

Video
ID : 1
Format : AVC
Format/Info : Advanced Video Codec
Format profile : High@L4.1
Format settings, CABAC : Yes
Format settings, ReFrames : 10 frames
Codec ID : V_MPEG4/ISO/AVC
Duration : 2h 49mn
Bit rate : 1 788 Kbps
Width : 1 024 pixels
Height : 576 pixels
Display aspect ratio : 16:9
Frame rate mode : Constant
Frame rate : 23.976 fps
Color space : YUV
Chroma subsampling : 4:2:0
Bit depth : 8 bits
Scan type : Progressive
Bits/(Pixel*Frame) : 0.126
Stream size : 2.05 GiB (66%)
Title : Enigma
Writing library : x264 core 133 r2334 a3ac64b
Encoding settings : cabac=1 / ref=10 / deblock=1:-2:-2 / analyse=0x3:0x113 / me=umh / subme=10 / psy=1 / psy_rd=1.05:0.15 / mixed_ref=1 / me_range=32 / chroma_me=1 / trellis=2 / 8x8dct=1 / cqm=0 / deadzone=21,11 / fast_pskip=0 / chroma_qp_offset=-3 / threads=12 / lookahead_threads=2 / sliced_threads=0 / nr=0 / decimate=0 / interlaced=0 / bluray_compat=0 / constrained_intra=0 / bframes=9 / b_pyramid=2 / b_adapt=2 / b_bias=0 / direct=3 / weightb=1 / open_gop=0 / weightp=2 / keyint=240 / keyint_min=23 / scenecut=40 / intra_refresh=0 / rc=2pass / mbtree=0 / bitrate=1788 / ratetol=1.0 / qcomp=0.60 / qpmin=0 / qpmax=51 / qpstep=4 / cplxblur=20.0 / qblur=0.5 / ip_ratio=1.40 / pb_ratio=1.30 / aq=1:1.00
Language : English
Default : Yes
Forced : No
Color primaries : BT.709
Transfer characteristics : BT.709
Matrix coefficients : BT.709

Audio #1
ID : 2
Format : AC-3
Format/Info : Audio Coding 3
Mode extension : CM (complete main)
Format settings, Endianness : Big
Codec ID : A_AC3
Duration : 2h 49mn
Bit rate mode : Constant
Bit rate : 384 Kbps
Channel(s) : 2 channels
Channel positions : Front: L R
Sampling rate : 48.0 KHz
Bit depth : 16 bits
Compression mode : Lossy
Stream size : 464 MiB (15%)
Title : DUB (Line)
Language : Russian
Default : Yes
Forced : No

Audio #2
ID : 3
Format : AC-3
Format/Info : Audio Coding 3
Mode extension : CM (complete main)
Format settings, Endianness : Big
Codec ID : A_AC3
Duration : 2h 49mn
Bit rate mode : Constant
Bit rate : 448 Kbps
Channel(s) : 6 channels
Channel positions : Front: L C R, Side: L R, LFE
Sampling rate : 48.0 KHz
Bit depth : 16 bits
Compression mode : Lossy
Stream size : 542 MiB (17%)
Language : English
Default : No
Forced : No

Text
ID : 4
Format : UTF-8
Codec ID : S_TEXT/UTF8
Codec ID/Info : UTF-8 Plain Text
Language : English
Default : No
Forced : No

Menu
00:00:00.000 : en:Chapter 01
00:09:35.283 : en:Chapter 02
00:17:12.281 : en:Chapter 03
00:25:00.707 : en:Chapter 04
00:35:45.101 : en:Chapter 05
00:42:16.825 : en:Chapter 06
00:50:19.558 : en:Chapter 07
00:54:47.784 : en:Chapter 08
00:58:59.369 : en:Chapter 09
01:06:14.971 : en:Chapter 10
01:17:28.018 : en:Chapter 11
01:25:31.960 : en:Chapter 12
01:34:31.957 : en:Chapter 13
01:46:14.659 : en:Chapter 14
01:55:34.510 : en:Chapter 15
02:02:14.327 : en:Chapter 16
02:12:56.802 : en:Chapter 17
02:20:53.778 : en:Chapter 18
02:35:12.052 : en:Chapter 19
02:43:59.830 : en:Chapter 20













реклама партнёра


Вернуться к началу
 Профиль  
 
   Похожие торренты   Автор   Торрент   Размер 
В этой теме нет новых непрочитанных сообщений. Интерстеллар / Interstellar (Кристофер Нолан) [фантастика, боевик, приключения, 2014] BDRip, Dub [IMAX Edition | iTunes Russia]

Dracon

1040 | 23

2.18 ГБ

В этой теме нет новых непрочитанных сообщений. Интерстеллар / Interstellar (Кристофер Нолан) [фантастика, боевик, приключения, 2014] BDRip 720p, Dub+Sub [IMAX Edition | iTunes]

Dracon

1878 | 52

4.89 ГБ

В этой теме нет новых непрочитанных сообщений. Интерстеллар / Interstellar (Кристофер Нолан) [фантастика, боевик, приключения, 2014] BDRip 1080p, Dub+Sub [IMAX Edition / iTunes Russia]

Dracon

304 | 10

14.04 ГБ

В этой теме нет новых непрочитанных сообщений. Интерстеллар / Interstellar (Кристофер Нолан) [фантастика, боевик, приключения, 2014] Blu-Ray, Dub+Sub [IMAX Edition / iTunes]+Mvo+Avo

Dracon

6 | 5

45.53 ГБ

В этой теме нет новых непрочитанных сообщений. Интерстеллар / Interstellar (Кристофер Нолан) [фантастика, боевик, приключения, 2014] Blu-Ray, Dub+Sub [IMAX Edition / iTunes]

Dracon

1 | 3

36.86 ГБ

В этой теме нет новых непрочитанных сообщений. Интерстеллар / Interstellar (Кристофер Нолан) [фантастика, боевик, приключения, 2014] BDRip-AVC, Mvo+Sub [IMAX Edition]

Dracon

333 | 8

4.01 ГБ

В этой теме нет новых непрочитанных сообщений. Интерстеллар / Interstellar (Кристофер Нолан) [фантастика, боевик, приключения, 2014] BDRip, Dub+Sub [IMAX Edition | Лицензия]

Dracon

335 | 10

2.91 ГБ


СообщениеДобавлено: 17 мар 2015, 11:19 

Не в сети
Зам. Админа
Аватара пользователя
Дата регистрации:
02 дек 2010, 12:39
Спасибо: 12620 / 214
Сообщения: 28049
Dracon писал(а):
Re: Интерстеллар / Interstellar (Кристофер Нолан) [фантастика, боевик, приключения, 2014] BDRip-AVC, Dub+Sub [IMAX Edition / iTunes]


Вернуться к началу
 Профиль  
 
Начать новую тему Ответить на тему  [ Сообщений: 2 ] 




Для Мосгорсуда, Роскомнадзора и рекламодателей:: mosgorsud-torrent[собачка]yandex.ru