Торрент файл
скачать торрент магнет ссылка Добавлен: 03 мар 2015, 10:48
Размер: 23.55 ГБ
Сидеров: 2
Личеров: 3
Автор

СообщениеДобавлено: 03 мар 2015, 10:48 

Не в сети
Зам. Админа
Аватара пользователя
Дата регистрации:
02 дек 2010, 12:39
Спасибо: 12648 / 214
Сообщения: 28010
Год выхода: 2014
Жанр: фэнтези, комедия, приключения, семейный
Режиссер: Шон Леви
В ролях: Бен Стиллер, Робин Уильямс, Оуэн Уилсон, Стив Куган, Рики Джервэйс, Дэн Стивенс, Ребел Уилсон, Скайлер Джизондо, Рами Малек

О фильме:
Ночной сторож Музея естественной истории в Нью-Йорке Ларри Дэйли в отчаянии: его друзья-экспонаты начинают странно себя вести, а всё потому, что оживляющая их древнеегипетская золотая пластина разрушается. Только отец фараона Ахкменра знает тайну магического артефакта, но вот беда — его мумия далеко, она выставлена в Британском музее естествознания! Команда любимых героев предпринимает беспрецедентное путешествие в Лондон. Они должны объединиться с британскими экспонатами и рискнуть всем, чтобы восстановить золотую пластину до того, как Ларри потеряет своих друзей навсегда.



Качество: BDRemux [1080p]
Видео: MPEG-4 AVC, ~29184 Кбит/с, 1920x1080, 23.976 кадр/с
Аудио 1: русский, AC3, 6 ch, 384 kbps, 48 KHz      
Аудио 2: английский, DTS, 6 ch, 1509 kbps, 48 KHz  
Аудио 3: английский, AC3, 2 ch, 224 kbps, 48 KHz |Commentary|
Продолжительность: 01:37:49
Перевод: Дублированный [iTunes]
Субтитры: английские
E:с торрентовNight.at.the.Museum.Secret.of.the.Tomb.2014.1080p.BDRemux.mkv
  General
    Unique ID : 212043178686945137107570795899508131899 (0x9F8607DE28A661898547C90748DA883B)
    Complete name : E:с торрентовNight.at.the.Museum.Secret.of.the.Tomb.2014.1080p.BDRemux.mkv
    Format : Matroska
    Format version : Version 4 / Version 2
    File size : 23.6 GiB
    Duration : 1h 37mn
    Overall bit rate mode : Variable
    Overall bit rate : 34.5 Mbps
    Encoded date : UTC 2015-03-02 16:10:56
    Writing application : mkvmerge v7.3.0 ('Nouages') 64bit built on Oct 22 2014 18:53:34
    Writing library : libebml v1.3.0 + libmatroska v1.4.1
    DURATION : 01:37:48.704000000
    NUMBER_OF_FRAMES : 183397
    NUMBER_OF_BYTES : 281697792
    _STATISTICS_WRITING_APP : mkvmerge v7.3.0 ('Nouages') 64bit built on Oct 22 2014 18:53:34
    _STATISTICS_WRITING_DATE_UTC : 2015-03-02 16:10:56
    _STATISTICS_TAGS : BPS DURATION NUMBER_OF_FRAMES NUMBER_OF_BYTES
  Video #1
    ID : 1
    Format : AVC
    Format/Info : Advanced Video Codec
    Format profile : High@L4.1
    Format settings, CABAC : Yes
    Format settings, ReFrames : 4 frames
    Codec ID : V_MPEG4/ISO/AVC
    Duration : 1h 37mn
    Bit rate mode : Variable
    Maximum bit rate : 31.5 Mbps
    Width : 1 920 pixels
    Height : 1 080 pixels
    Display aspect ratio : 16:9
    Frame rate mode : Constant
    Frame rate : 23.976 fps
    Color space : YUV
    Chroma subsampling : 4:2:0
    Bit depth : 8 bits
    Scan type : Progressive
    Language : English
    Default : Yes
    Forced : No
    DURATION : 01:37:48.780000000
    NUMBER_OF_FRAMES : 140710
    NUMBER_OF_BYTES : 21281923561
    _STATISTICS_WRITING_APP : mkvmerge v7.3.0 ('Nouages') 64bit built on Oct 22 2014 18:53:34
    _STATISTICS_WRITING_DATE_UTC : 2015-03-02 16:10:56
    _STATISTICS_TAGS : BPS DURATION NUMBER_OF_FRAMES NUMBER_OF_BYTES
  Audio #2
    ID : 2
    Format : AC-3
    Format/Info : Audio Coding 3
    Mode extension : CM (complete main)
    Format settings, Endianness : Big
    Codec ID : A_AC3
    Duration : 1h 37mn
    Bit rate mode : Constant
    Bit rate : 384 Kbps
    Channel(s) : 6 channels
    Channel positions : Front: L C R, Side: L R, LFE
    Sampling rate : 48.0 KHz
    Bit depth : 16 bits
    Compression mode : Lossy
    Stream size : 269 MiB (1%)
    Title : iTunes
    Language : Russian
    Default : Yes
    Forced : No
    DURATION : 01:37:48.789000000
    NUMBER_OF_FRAMES : 550199
    NUMBER_OF_BYTES : 3555765924
    _STATISTICS_WRITING_APP : mkvmerge v7.3.0 ('Nouages') 64bit built on Oct 22 2014 18:53:34
    _STATISTICS_WRITING_DATE_UTC : 2015-03-02 16:10:56
    _STATISTICS_TAGS : BPS DURATION NUMBER_OF_FRAMES NUMBER_OF_BYTES
  Audio #3
    ID : 3
    Format : DTS
    Format/Info : Digital Theater Systems
    Format profile : MA / Core
    Mode : 16
    Format settings, Endianness : Big
    Codec ID : A_DTS
    Duration : 1h 37mn
    Bit rate mode : Variable
    Bit rate : Unknown / 1 509 Kbps
    Channel(s) : 8 channels / 6 channels
    Channel positions : Front: L C R, Side: L R, Back: L R, LFE / Front: L C R, Side: L R, LFE
    Sampling rate : 48.0 KHz
    Bit depth : 24 bits
    Compression mode : Lossless / Lossy
    Title : Original
    Language : English
    Default : No
    Forced : No
  Audio #4
    ID : 4
    Format : AC-3
    Format/Info : Audio Coding 3
    Mode extension : CM (complete main)
    Format settings, Endianness : Big
    Codec ID : A_AC3
    Duration : 1h 37mn
    Bit rate mode : Constant
    Bit rate : 224 Kbps
    Channel(s) : 2 channels
    Channel positions : Front: L R
    Sampling rate : 48.0 KHz
    Bit depth : 16 bits
    Compression mode : Lossy
    Stream size : 157 MiB (1%)
    Title : Commentary
    Language : English
    Default : No
    Forced : No
  Text #5
    ID : 5
    Format : UTF-8
    Codec ID : S_TEXT/UTF8
    Codec ID/Info : UTF-8 Plain Text
    Language : English
    Default : No
    Forced : No
  Text #6
    ID : 6
    Format : UTF-8
    Codec ID : S_TEXT/UTF8
    Codec ID/Info : UTF-8 Plain Text
    Title : SDH
    Language : English
    Default : No
    Forced : No
  Menu
    00:00:00.000 : en:Chapter 01
    00:04:34.440 : en:Chapter 02
    00:06:29.347 : en:Chapter 03
    00:09:10.883 : en:Chapter 04
    00:13:18.130 : en:Chapter 05
    00:14:43.132 : en:Chapter 06
    00:18:01.038 : en:Chapter 07
    00:19:58.906 : en:Chapter 08
    00:22:27.387 : en:Chapter 09
    00:24:47.611 : en:Chapter 10
    00:26:26.084 : en:Chapter 11
    00:29:11.583 : en:Chapter 12
    00:32:03.504 : en:Chapter 13
    00:35:50.815 : en:Chapter 14
    00:39:48.761 : en:Chapter 15
    00:44:14.735 : en:Chapter 16
    00:51:19.284 : en:Chapter 17
    00:52:38.530 : en:Chapter 18
    00:58:00.351 : en:Chapter 19
    01:01:09.624 : en:Chapter 20
    01:03:40.274 : en:Chapter 21
    01:06:44.333 : en:Chapter 22
    01:08:01.911 : en:Chapter 23
    01:11:09.640 : en:Chapter 24
    01:17:08.624 : en:Chapter 25
    01:21:45.317 : en:Chapter 26
    01:27:47.512 : en:Chapter 27
    01:31:28.274 : en:Chapter 28













Вернуться к началу
 Профиль  
 
   Похожие торренты   Автор   Торрент   Размер 
В этой теме нет новых непрочитанных сообщений. Ночь в музее 2 / Night at the Museum: Battle of the Smithsonian [фэнтези, комедия, приключения, 2009] WEB-DL 1080, Dub [Open Matte]

salma3

16 | 8

15.57 ГБ

В этой теме нет новых непрочитанных сообщений. Элвин и бурундуки: Грандиозное бурундуключение / Alvin and the Chipmunks: The Road Chip [мультфильм, фэнтези, комедия, приключения, семейный, музыка, 2015] BDRemux 1080p, Dub+Sub [iTunes]

salma3

11 | 6

22.55 ГБ

В этой теме нет новых непрочитанных сообщений. Приключения Паддингтона 2 / Paddington 2 [Фэнтези, комедия, семейный, 2017] BDRemux 1080p, Dub [iTunes]

salma3

4 | 4

23.86 ГБ

В этой теме нет новых непрочитанных сообщений. Тролли / Trolls (Мультфильм, мюзикл, фэнтези, комедия, приключения, семейный, 2016) BDRemux 1080p от ExKinoRay | iTunes

marya111

55 | 38

20.33 ГБ

В этой теме нет новых непрочитанных сообщений. Тутанхамон: Проклятие гробницы / The Curse of King Tut's Tomb [ужасы, фэнтези, приключения, 2006] BDRip, Mvo

salma3

99 | 53

2.91 ГБ

В этой теме нет новых непрочитанных сообщений. Тайная жизнь домашних животных / The Secret Life of Pets (Мультфильм, комедия, семейный, полнометражный, 2016) BDRemux 1080p от ExKinoRay | iTunes

marya111

0 | 0

17.53 ГБ

В этой теме нет новых непрочитанных сообщений. Дом / Home (Тим Джонсон) [мультфильм, фантастика, фэнтези, комедия, приключения, семейный, 2015] BDRip 1080p, Dub [iTunes]

Dracon

67 | 6

4.62 ГБ


Начать новую тему Ответить на тему  [ 1 сообщение ] 




Для Мосгорсуда, Роскомнадзора и рекламодателей:: mosgorsud-torrent[собачка]yandex.ru
cron
cron