Торрент файл
скачать торрент магнет ссылка Добавлен: 28 фев 2015, 22:16
Размер: 14.52 ГБ
Сидеров: 63
Личеров: 2
Автор

СообщениеДобавлено: 28 фев 2015, 22:16 

Не в сети
Зам. Админа
Аватара пользователя
Дата регистрации:
02 дек 2010, 12:39
Спасибо: 12656 / 214
Сообщения: 28010
Год выпуска: 2014
Жанр: Драма, комедия
Выпущено: США, Канада, New Regency Pictures, M Prods, Grisbi Productions, Le
Режиссер: Алехандро Гонсалес Иньярриту
В ролях: Майкл Китон, Зак Галифианакис, Эдвард Нортон, Андреа Райзборо, Эми Райан, Эмма Стоун, Наоми Уоттс, Кенни Чин, Жамаль Гаррисон-Лоу, Джереми Шамос
О фильме: В центре сюжета бывший актер, некогда сыгравший роль популярного супергероя Бёрдмэна и теперь, переступая через свое эго, он решает принять участие в новой бродвейской постановке с целью вернуть себе былую славу, блеск и величие.

Качество: BDRip (1080p)
Видео: MPEG-4 AVC, 8888 Кбит/с, 1920x1040, 23.976 кадр/с
Аудио: Русский (АС3, 6 ch, 448 Кбит/с), (АС3, 6 ch, 640 Кбит/с), (DTS, 6 ch, 768 Кбит/с), (DTS, 6 ch, 1509 Кбит/с), украинский, английский (DTS, 6 ch, 1509 Кбит/с)
Размер: 14.52 ГБ
Продолжительность: 01:59:50
Перевод: Дублированный, авторский
Субтитры: Русские, английские, украинские
Сохранены оригинальные чаптеры как на Blu-Ray.
В переводе Д.Есарева присутствует ненормативная лексика.
--------------------------------------------------------------
Перевод Д.Есарева доступен благодоря mihey10, работа со звуком mihaildns.
Перевод А.Матвеева благодаря вложениям следующих пользователей: будулайроманов, Shrooms, 7654, ACID, dikii, Wa1ker, vupen, spiralarch, Loki1982, Alex_digg, save2x2, sivservik, olddrinker, Kruj0k, timur, GodFather, Salinger. Работа со звуком - Переводман
-------------------------------------------------------
Аудио1: Русский (AC3, 6 ch, 448 Кбит/с) - Дублированный (Лицензия)
Аудио2: Русский (DTS, 6 ch, 768 Кбит/с) - Дублированный (Лицензия)
Аудио3: Русский (AC3, 6 ch, 640 Кбит/с) - Авторский (Д.Есарев)
Аудио4: Русский (DTS, 6 ch, 1509 Кбит/с) - Авторский (Д.Есарев)
Аудио3: Русский (AC3, 6 ch, 640 Кбит/с) - Авторский (А.Матвеев)
Аудио4: Русский (DTS, 6 ch, 1509 Кбит/с) - Авторский (А.Матвеев)
Аудио6: Украинский (DTS, 6 ch, 1509 Кбит/с) - Прфессиональный многоголосый (Цікава ідея)

x264 [info]: frame I:731 Avg QP:15.23 size:186421
x264 [info]: frame P:34703 Avg QP:18.37 size: 85468
x264 [info]: frame B:136167 Avg QP:19.85 size: 35582
x264 [info]: consecutive B-frames: 1.0% 1.8% 9.9% 10.6% 11.2% 56.2% 3.4% 2.4% 2.2% 1.2%
x264 [info]: mb I I16..4: 16.2% 72.0% 11.8%
x264 [info]: mb P I16..4: 3.4% 17.9% 1.2% P16..4: 31.4% 32.2% 5.6% 1.4% 0.1% skip: 6.8%
x264 [info]: mb B I16..4: 0.6% 2.4% 0.1% B16..8: 36.9% 18.3% 2.0% direct: 8.0% skip:31.8% L0:43.2% L1:44.3% BI:12.5%
x264 [info]: 8x8 transform intra:78.5% inter:55.8%
x264 [info]: direct mvs spatial:99.0% temporal:1.0%
x264 [info]: coded y,uvDC,uvAC intra: 80.0% 82.1% 62.9% inter: 28.5% 33.5% 14.0%
x264 [info]: i16 v,h,dc,p: 43% 11% 7% 39%
x264 [info]: i8 v,h,dc,ddl,ddr,vr,hd,vl,hu: 8% 7% 10% 10% 13% 13% 13% 13% 14%
x264 [info]: i4 v,h,dc,ddl,ddr,vr,hd,vl,hu: 9% 8% 17% 7% 13% 13% 12% 9% 11%
x264 [info]: i8c dc,h,v,p: 50% 18% 17% 16%
x264 [info]: Weighted P-Frames: Y:1.8% UV:0.9%
x264 [info]: ref P L0: 49.5% 8.4% 30.3% 10.6% 1.2% 0.0%
x264 [info]: ref B L0: 84.7% 12.8% 2.5%
x264 [info]: ref B L1: 92.5% 7.5%
x264 [info]: kb/s:8883.21
Общее
Уникальный идентификатор : 184808704727044905666811585178397839984 (0x8B08DCA1A8C0A054AEAD495B79281270)
Полное имя : D:ЗагрузкиBirdman.2014.x264.BDRip.(1080p).ExKinoRay.mkv
Формат : Matroska
Версия формата : Version 2
Размер файла : 14,5 Гбайт
Продолжительность : 1 ч. 59 м.
Общий поток : 17,4 Мбит/сек
Название фильма : Бердмэн.2014.Rip by: ollan
Дата кодирования : UTC 2015-02-28 15:17:59
Программа кодирования : mkvmerge v5.6.0 ('Kenya Kane') built on May 27 2012 16:44:04
Библиотека кодирования : libebml v1.2.3 + libmatroska v1.3.0

Видео
Идентификатор : 1
Формат : AVC
Формат/Информация : Advanced Video Codec
Профиль формата : High@L4.1
Параметр CABAC формата : Да
Параметр ReFrames формата : 4 кадра
Идентификатор кодека : V_MPEG4/ISO/AVC
Продолжительность : 1 ч. 59 м.
Битрейт : 8888 Кбит/сек
Ширина : 1920 пикселей
Высота : 1040 пикселей
Соотношение сторон : 1,85:1
Режим частоты кадров : Постоянный
Частота кадров : 23,976 кадра/сек
Цветовое пространство : YUV
Субдискретизация насыщенности : 4:2:0
Битовая глубина : 8 бит
Тип развёртки : Прогрессивная
Бит/(Пиксели*Кадры) : 0.186
Размер потока : 7,12 Гбайт (49%)
Библиотека кодирования : x264 core 125 r2200 999b753
Настройки программы : cabac=1 / ref=4 / deblock=1:-3:-3 / analyse=0x3:0x133 / me=umh / subme=11 / psy=1 / psy_rd=1.00:0.10 / mixed_ref=1 / me_range=32 / chroma_me=1 / trellis=2 / 8x8dct=1 / cqm=0 / deadzone=21,11 / fast_pskip=0 / chroma_qp_offset=-3 / threads=12 / lookahead_threads=2 / sliced_threads=0 / nr=0 / decimate=0 / interlaced=0 / bluray_compat=0 / constrained_intra=0 / bframes=9 / b_pyramid=2 / b_adapt=2 / b_bias=0 / direct=3 / weightb=1 / open_gop=0 / weightp=2 / keyint=240 / keyint_min=23 / scenecut=40 / intra_refresh=0 / rc_lookahead=60 / rc=2pass / mbtree=1 / bitrate=8888 / ratetol=1.0 / qcomp=0.60 / qpmin=0 / qpmax=69 / qpstep=4 / cplxblur=20.0 / qblur=0.5 / ip_ratio=1.40 / aq=1:1.00
Язык : English
Default : Да
Forced : Нет

Аудио #1
Идентификатор : 2
Формат : AC-3
Формат/Информация : Audio Coding 3
Расширение режима : CM (complete main)
Параметр Endianness формата : Big
Идентификатор кодека : A_AC3
Продолжительность : 1 ч. 59 м.
Вид битрейта : Постоянный
Битрейт : 448 Кбит/сек
Каналы : 6 каналов
Расположение каналов : Front: L C R, Side: L R, LFE
Частота : 48,0 КГц
Битовая глубина : 16 бит
Метод сжатия : С потерями
Размер потока : 382 Мбайт (3%)
Заголовок : Дублированный (Лицензия)
Язык : Russian
Default : Да
Forced : Нет

Аудио #2
Идентификатор : 3
Формат : DTS
Формат/Информация : Digital Theater Systems
Режим : 16
Параметр Endianness формата : Big
Идентификатор кодека : A_DTS
Продолжительность : 1 ч. 59 м.
Вид битрейта : Постоянный
Битрейт : 768 Кбит/сек
Каналы : 6 каналов
Расположение каналов : Front: L C R, Side: L R, LFE
Частота : 48,0 КГц
Битовая глубина : 24 бит
Метод сжатия : С потерями
Размер потока : 655 Мбайт (4%)
Заголовок : Дублированный (Лицензия)
Язык : Russian
Default : Нет
Forced : Нет

Аудио #3
Идентификатор : 4
Формат : AC-3
Формат/Информация : Audio Coding 3
Расширение режима : CM (complete main)
Параметр Endianness формата : Big
Идентификатор кодека : A_AC3
Продолжительность : 1 ч. 59 м.
Вид битрейта : Постоянный
Битрейт : 640 Кбит/сек
Каналы : 6 каналов
Расположение каналов : Front: L C R, Side: L R, LFE
Частота : 48,0 КГц
Битовая глубина : 16 бит
Метод сжатия : С потерями
Размер потока : 546 Мбайт (4%)
Заголовок : Авторский (Д.Есарев)
Язык : Russian
Default : Нет
Forced : Нет

Аудио #4
Идентификатор : 5
Формат : DTS
Формат/Информация : Digital Theater Systems
Режим : 16
Параметр Endianness формата : Big
Идентификатор кодека : A_DTS
Продолжительность : 1 ч. 59 м.
Вид битрейта : Постоянный
Битрейт : 1509 Кбит/сек
Каналы : 6 каналов
Расположение каналов : Front: L C R, Side: L R, LFE
Частота : 48,0 КГц
Битовая глубина : 24 бит
Метод сжатия : С потерями
Размер потока : 1,26 Гбайт (9%)
Заголовок : Авторский (Д.Есарев)
Язык : Russian
Default : Нет
Forced : Нет

Аудио #5
Идентификатор : 6
Формат : AC-3
Формат/Информация : Audio Coding 3
Расширение режима : CM (complete main)
Параметр Endianness формата : Big
Идентификатор кодека : A_AC3
Продолжительность : 1 ч. 59 м.
Вид битрейта : Постоянный
Битрейт : 640 Кбит/сек
Каналы : 6 каналов
Расположение каналов : Front: L C R, Side: L R, LFE
Частота : 48,0 КГц
Битовая глубина : 16 бит
Метод сжатия : С потерями
Размер потока : 546 Мбайт (4%)
Заголовок : Авторский (А.Матвеев)
Язык : Russian
Default : Нет
Forced : Нет

Аудио #6
Идентификатор : 7
Формат : DTS
Формат/Информация : Digital Theater Systems
Режим : 16
Параметр Endianness формата : Big
Идентификатор кодека : A_DTS
Продолжительность : 1 ч. 59 м.
Вид битрейта : Постоянный
Битрейт : 1509 Кбит/сек
Каналы : 6 каналов
Расположение каналов : Front: L C R, Side: L R, LFE
Частота : 48,0 КГц
Битовая глубина : 24 бит
Метод сжатия : С потерями
Размер потока : 1,26 Гбайт (9%)
Заголовок : Авторский (А.Матвеев)
Язык : Russian
Default : Нет
Forced : Нет

Аудио #7
Идентификатор : 8
Формат : DTS
Формат/Информация : Digital Theater Systems
Режим : 16
Параметр Endianness формата : Big
Идентификатор кодека : A_DTS
Продолжительность : 1 ч. 59 м.
Вид битрейта : Постоянный
Битрейт : 1509 Кбит/сек
Каналы : 6 каналов
Расположение каналов : Front: L C R, Side: L R, LFE
Частота : 48,0 КГц
Битовая глубина : 16 бит
Метод сжатия : С потерями
Размер потока : 1,26 Гбайт (9%)
Заголовок : Прфессиональный многоголосый (Цікава ідея)
Язык : Ukrainian
Default : Нет
Forced : Нет

Аудио #8
Идентификатор : 9
Формат : DTS
Формат/Информация : Digital Theater Systems
Режим : 16
Параметр Endianness формата : Big
Идентификатор кодека : A_DTS
Продолжительность : 1 ч. 59 м.
Вид битрейта : Постоянный
Битрейт : 1509 Кбит/сек
Каналы : 6 каналов
Расположение каналов : Front: L C R, Side: L R, LFE
Частота : 48,0 КГц
Битовая глубина : 24 бит
Метод сжатия : С потерями
Размер потока : 1,26 Гбайт (9%)
Язык : English
Default : Нет
Forced : Нет

Текст #1
Идентификатор : 10
Формат : UTF-8
Идентификатор кодека : S_TEXT/UTF8
Идентификатор кодека/Информация : UTF-8 Plain Text
Заголовок : Forced
Язык : Russian
Default : Да
Forced : Нет

Текст #2
Идентификатор : 11
Формат : UTF-8
Идентификатор кодека : S_TEXT/UTF8
Идентификатор кодека/Информация : UTF-8 Plain Text
Заголовок : Full
Язык : Russian
Default : Нет
Forced : Нет

Текст #3
Идентификатор : 12
Формат : UTF-8
Идентификатор кодека : S_TEXT/UTF8
Идентификатор кодека/Информация : UTF-8 Plain Text
Язык : English
Default : Нет
Forced : Нет

Текст #4
Идентификатор : 13
Формат : UTF-8
Идентификатор кодека : S_TEXT/UTF8
Идентификатор кодека/Информация : UTF-8 Plain Text
Заголовок : Full
Язык : Ukrainian
Default : Нет
Forced : Нет

Меню
00:00:00.000 : en:Chapter 01
00:03:29.083 : en:Chapter 02
00:07:34.328 : en:Chapter 03
00:09:08.506 : en:Chapter 04
00:12:39.717 : en:Chapter 05
00:16:53.220 : en:Chapter 06
00:19:07.729 : en:Chapter 07
00:20:21.803 : en:Chapter 08
00:25:21.311 : en:Chapter 09
00:31:44.694 : en:Chapter 10
00:36:09.959 : en:Chapter 11
00:37:12.980 : en:Chapter 12
00:42:09.318 : en:Chapter 13
00:48:49.676 : en:Chapter 14
00:53:30.957 : en:Chapter 15
00:58:31.257 : en:Chapter 16
01:03:17.627 : en:Chapter 17
01:08:28.938 : en:Chapter 18
01:12:42.649 : en:Chapter 19
01:17:01.700 : en:Chapter 20
01:20:45.048 : en:Chapter 21
01:25:14.317 : en:Chapter 22
01:28:05.488 : en:Chapter 23
01:33:22.388 : en:Chapter 24
01:39:14.573 : en:Chapter 25
01:43:10.726 : en:Chapter 26
01:46:43.688 : en:Chapter 27
01:52:16.813 : en:Chapter 28







Вернуться к началу
 Профиль  
 
   Похожие торренты   Автор   Торрент   Размер 
В этой теме нет новых непрочитанных сообщений. Бердмэн / Birdman [драма, комедия, 2014] BDRip-HEVC 1080p, Dub

salma3

0 | 0

7.04 ГБ

В этой теме нет новых непрочитанных сообщений. Выживший / The Revenant (Алехандро Гонсалес Иньярриту) [2015, Триллер, драма, приключения, вестерн , WEB-DLRip 1080p] [iTunes , ESAREV , Ukrainian , English] + [Subs Rus , Eng , Ukr]

Враг Нароода

5 | 0

6.58 ГБ

В этой теме нет новых непрочитанных сообщений. Выживший / The Revenant (Алехандро Гонсалес Иньярриту) [2015, Триллер, драма, приключения, вестерн , BD-Remux 1080p] [iTunes , ESAREV , Ukrainian , English] + [Subs Rus , Eng , Ukr]

Враг Нароода

17 | 9

29.85 ГБ

В этой теме нет новых непрочитанных сообщений. Выживший / The Revenant (Алехандро Гонсалес Иньярриту) [триллер, драма, приключения, вестерн, 2015] WEBRip, mvo

Dracon

338 | 4

2.05 ГБ

В этой теме нет новых непрочитанных сообщений. Выживший / The Revenant (Алехандро Гонсалес Иньярриту) [триллер, драма, приключения, вестерн, 2015] DVDScr [Есарев]

Dracon

2379 | 80

2.05 ГБ

В этой теме нет новых непрочитанных сообщений. Выживший / The Revenant (Алехандро Гонсалес Иньярриту) [триллер, драма, приключения, вестерн, 2015] WEBRip 720p [Есарев]

Dracon

1193 | 47

3.72 ГБ

В этой теме нет новых непрочитанных сообщений. Бесконечно белый медведь / Infinitely Polar Bear [Драма, комедия, 2014] BDRip 1080p, Mvo [Лицензия]

Dracon

302 | 59

10.52 ГБ


Начать новую тему Ответить на тему  [ 1 сообщение ] 




Для Мосгорсуда, Роскомнадзора и рекламодателей:: mosgorsud-torrent[собачка]yandex.ru
cron