Торрент файл
скачать торрент магнет ссылка Добавлен: 28 фев 2015, 22:00
Размер: 4.41 ГБ
Сидеров: 87
Личеров: 4
Автор

СообщениеДобавлено: 28 фев 2015, 22:00 

Не в сети
Зам. Админа
Аватара пользователя
Дата регистрации:
02 дек 2010, 12:39
Спасибо: 12656 / 214
Сообщения: 28010
Год выхода: 2014
Жанр: драма, комедия
Режиссер: Алехандро Гонсалес Иньярриту
В ролях: Майкл Китон, Зак Галифианакис, Эдвард Нортон, Андреа Райзборо, Эми Райан, Эмма Стоун, Наоми Уоттсон, Кенни Чин, Жамаль Гаррисон-Лоу, Джереми Шамос
О фильме: В центре сюжета бывший актер, некогда сыгравший роль популярного супергероя Бёрдмэна, и теперь, переступая через свое эго, он решает принять участие в новой бродвейской постановке с целью вернуть себе былую славу, блеск и величие.

Выпущено: США, Канада / New Regency Pictures, M Prods, Grisbi Productions
Продолжительность: 01:59:17
Перевод: Профессиональный (полное дублирование) - BD CEE
Авторский (одноголосый, закадровый) - Д.Есарев | А.Матвеев
Профессиональный (многоголосый, закадровый) - Цікава ідея

Качество: BDRip 720p
Формат: MKV
Видео: MPEG4/AVC, 3050 Кбит/сек, 1280х696 (1.85:1), 23.976 кадра/сек
Аудио 1: AC3, 6 каналов, 448 Кбит/сек | Русский - BD CEE
Аудио 2: AC3, 6 каналов, 448 Кбит/сек | Русский - Д.Есарев
Аудио 3: AC3, 6 каналов, 448 Кбит/сек | Русский - А.Матвеев
Аудио 4: AC3, 6 каналов, 448 Кбит/сек | Укриинский - Цікава ідея
Аудио 5: AC3, 6 каналов, 448 Кбит/сек | Английский
Субтитры: Русские (Forced, Full, Full | не нормативная лексика), украинские, английские (Full, SDH)
Навигация по главам: Есть
Общее
Уникальный идентификатор : 181649673108193793565269611994360242707 (0x88A87458FACCFB118557AF71BD5AE213)
Полное имя : Birdman. (2014) BDRip 720p.mkv
Формат : Matroska
Версия формата : Version 2
Размер файла : 4,41 Гбайт
Продолжительность : 1 ч. 59 м.
Общий поток : 5292 Кбит/сек
Название фильма : Birdman. 2014
Дата кодирования : UTC 2015-02-28 16:22:40
Программа кодирования : mkvmerge v5.8.0 ('No Sleep / Pillow') built on Sep 2 2012 15:37:04
Библиотека кодирования : libebml v1.2.3 + libmatroska v1.3.0
Видео
Идентификатор : 1
Формат : AVC
Формат/Информация : Advanced Video Codec
Профиль формата : High@L4.1
Параметр CABAC формата : Да
Параметр ReFrames формата : 5 кадров
Идентификатор кодека : V_MPEG4/ISO/AVC
Продолжительность : 1 ч. 59 м.
Битрейт : 3050 Кбит/сек
Ширина : 1280 пикселей
Высота : 696 пикселей
Соотношение сторон : 1,85:1
Режим частоты кадров : Постоянный
Частота кадров : 23,976 кадра/сек
Цветовое пространство : YUV
Субдискретизация насыщенности : 4:2:0
Битовая глубина : 8 бит
Тип развёртки : Прогрессивная
Бит/(Пиксели*Кадры) : 0.143
Размер потока : 2,46 Гбайт (56%)
Заголовок : WiNTeaM
Библиотека кодирования : x264 core 142 r2491 24e4fed
Настройки программы : cabac=1 / ref=5 / deblock=1:-2:-1 / analyse=0x3:0x133 / me=umh / subme=10 / psy=1 / psy_rd=1.00:0.00 / mixed_ref=1 / me_range=48 / chroma_me=1 / trellis=2 / 8x8dct=1 / cqm=0 / deadzone=21,11 / fast_pskip=1 / chroma_qp_offset=-2 / threads=6 / lookahead_threads=1 / sliced_threads=0 / nr=0 / decimate=1 / interlaced=0 / bluray_compat=0 / constrained_intra=0 / bframes=3 / b_pyramid=2 / b_adapt=2 / b_bias=0 / direct=3 / weightb=1 / open_gop=0 / weightp=2 / keyint=240 / keyint_min=23 / scenecut=40 / intra_refresh=0 / rc_lookahead=50 / rc=2pass / mbtree=1 / bitrate=3050 / ratetol=1.3 / qcomp=0.60 / qpmin=0 / qpmax=69 / qpstep=4 / cplxblur=20.0 / qblur=0.5 / vbv_maxrate=30000 / vbv_bufsize=40000 / nal_hrd=none / filler=0 / ip_ratio=1.40 / aq=1:1.00
Язык : English
Default : Да
Forced : Нет
Основные цвета : BT.709
Характеристики трансфера : BT.709
Коэффициенты матрицы : BT.709
Аудио #1
Идентификатор : 2
Формат : AC-3
Формат/Информация : Audio Coding 3
Расширение режима : CM (complete main)
Параметр Endianness формата : Big
Идентификатор кодека : A_AC3
Продолжительность : 1 ч. 59 м.
Вид битрейта : Постоянный
Битрейт : 448 Кбит/сек
Каналы : 6 каналов
Расположение каналов : Front: L C R, Side: L R, LFE
Частота : 48,0 КГц
Битовая глубина : 16 бит
Метод сжатия : С потерями
Размер потока : 382 Мбайт (8%)
Заголовок : D | BD CEE
Язык : Russian
Default : Да
Forced : Нет
Аудио #2
Идентификатор : 3
Формат : AC-3
Формат/Информация : Audio Coding 3
Расширение режима : CM (complete main)
Параметр Endianness формата : Big
Идентификатор кодека : A_AC3
Продолжительность : 1 ч. 59 м.
Вид битрейта : Постоянный
Битрейт : 448 Кбит/сек
Каналы : 6 каналов
Расположение каналов : Front: L C R, Side: L R, LFE
Частота : 48,0 КГц
Битовая глубина : 16 бит
Метод сжатия : С потерями
Размер потока : 382 Мбайт (8%)
Заголовок : A | Д.Есарев
Язык : Russian
Default : Нет
Forced : Нет
Аудио #3
Идентификатор : 4
Формат : AC-3
Формат/Информация : Audio Coding 3
Расширение режима : CM (complete main)
Параметр Endianness формата : Big
Идентификатор кодека : A_AC3
Продолжительность : 1 ч. 59 м.
Вид битрейта : Постоянный
Битрейт : 448 Кбит/сек
Каналы : 6 каналов
Расположение каналов : Front: L C R, Side: L R, LFE
Частота : 48,0 КГц
Битовая глубина : 16 бит
Метод сжатия : С потерями
Размер потока : 382 Мбайт (8%)
Заголовок : A | А.Матвеев
Язык : Russian
Default : Нет
Forced : Нет
Аудио #4
Идентификатор : 5
Формат : AC-3
Формат/Информация : Audio Coding 3
Расширение режима : CM (complete main)
Параметр Endianness формата : Big
Идентификатор кодека : A_AC3
Продолжительность : 1 ч. 59 м.
Вид битрейта : Постоянный
Битрейт : 448 Кбит/сек
Каналы : 6 каналов
Расположение каналов : Front: L C R, Side: L R, LFE
Частота : 48,0 КГц
Битовая глубина : 16 бит
Метод сжатия : С потерями
Размер потока : 382 Мбайт (8%)
Заголовок : P | Цікава ідея
Язык : Ukrainian
Default : Нет
Forced : Нет
Аудио #5
Идентификатор : 6
Формат : AC-3
Формат/Информация : Audio Coding 3
Расширение режима : CM (complete main)
Параметр Endianness формата : Big
Идентификатор кодека : A_AC3
Продолжительность : 1 ч. 59 м.
Вид битрейта : Постоянный
Битрейт : 448 Кбит/сек
Каналы : 6 каналов
Расположение каналов : Front: L C R, Side: L R, LFE
Частота : 48,0 КГц
Битовая глубина : 16 бит
Метод сжатия : С потерями
Размер потока : 382 Мбайт (8%)
Заголовок : Original
Язык : English
Default : Нет
Forced : Нет
Текст #1
Идентификатор : 7
Формат : UTF-8
Идентификатор кодека : S_TEXT/UTF8
Идентификатор кодека/Информация : UTF-8 Plain Text
Заголовок : Forced
Язык : Russian
Default : Да
Forced : Нет
Текст #2
Идентификатор : 8
Формат : UTF-8
Идентификатор кодека : S_TEXT/UTF8
Идентификатор кодека/Информация : UTF-8 Plain Text
Заголовок : Full
Язык : Russian
Default : Нет
Forced : Нет
Текст #3
Идентификатор : 9
Формат : UTF-8
Идентификатор кодека : S_TEXT/UTF8
Идентификатор кодека/Информация : UTF-8 Plain Text
Заголовок : Full | не нормативная лексика
Язык : Russian
Default : Нет
Forced : Нет
Текст #4
Идентификатор : 10
Формат : UTF-8
Идентификатор кодека : S_TEXT/UTF8
Идентификатор кодека/Информация : UTF-8 Plain Text
Заголовок : Full
Язык : Ukrainian
Default : Нет
Forced : Нет
Текст #5
Идентификатор : 11
Формат : UTF-8
Идентификатор кодека : S_TEXT/UTF8
Идентификатор кодека/Информация : UTF-8 Plain Text
Заголовок : Full
Язык : English
Default : Нет
Forced : Нет
Текст #6
Идентификатор : 12
Формат : UTF-8
Идентификатор кодека : S_TEXT/UTF8
Идентификатор кодека/Информация : UTF-8 Plain Text
Заголовок : SDH
Язык : English
Default : Нет
Forced : Нет
Меню
00:00:00.000 : en:00:00:00.000
00:03:29.084 : en:00:03:29.084
00:07:33.828 : en:00:07:33.828
00:09:08.506 : en:00:09:08.506
00:12:39.384 : en:00:12:39.384
00:16:53.429 : en:00:16:53.429
00:19:07.146 : en:00:19:07.146
00:20:22.096 : en:00:20:22.096
00:25:21.186 : en:00:25:21.186
00:31:45.028 : en:00:31:45.028
00:36:09.834 : en:00:36:09.834
00:37:12.772 : en:00:37:12.772
00:42:09.444 : en:00:42:09.444
00:48:49.802 : en:00:48:49.802
00:53:30.541 : en:00:53:30.541
00:58:31.341 : en:00:58:31.341
01:03:17.085 : en:01:03:17.085
01:08:29.147 : en:01:08:29.147
01:12:42.567 : en:01:12:42.567
01:17:01.450 : en:01:17:01.450
01:20:45.090 : en:01:20:45.090
01:25:13.984 : en:01:25:13.984
01:28:04.946 : en:01:28:04.946
01:33:22.472 : en:01:33:22.472
01:39:14.949 : en:01:39:14.949
01:43:10.726 : en:01:43:10.726
01:46:43.856 : en:01:46:43.856
01:52:16.855 : en:01:52:16.855



Вернуться к началу
 Профиль  
 
   Похожие торренты   Автор   Торрент   Размер 
В этой теме нет новых непрочитанных сообщений. Бердмэн / Birdman [драма, комедия, 2014] BDRip-HEVC 1080p, Dub

salma3

0 | 0

7.04 ГБ

В этой теме нет новых непрочитанных сообщений. Выживший / The Revenant (Алехандро Гонсалес Иньярриту) [триллер, драма, приключения, вестерн, 2015] WEBRip 720p [Есарев]

Dracon

1193 | 47

3.72 ГБ

В этой теме нет новых непрочитанных сообщений. Выживший / The Revenant (Алехандро Гонсалес Иньярриту) [триллер, драма, приключения, вестерн, 2015] WEBRip, mvo

Dracon

338 | 4

2.05 ГБ

В этой теме нет новых непрочитанных сообщений. Выживший / The Revenant (Алехандро Гонсалес Иньярриту) [триллер, драма, приключения, вестерн, 2015] DVDScr [Есарев]

Dracon

2379 | 80

2.05 ГБ

В этой теме нет новых непрочитанных сообщений. Выживший / The Revenant (Алехандро Гонсалес Иньярриту) [2015, Триллер, драма, приключения, вестерн , BD-Remux 1080p] [iTunes , ESAREV , Ukrainian , English] + [Subs Rus , Eng , Ukr]

Враг Нароода

17 | 9

29.85 ГБ

В этой теме нет новых непрочитанных сообщений. Выживший / The Revenant (Алехандро Гонсалес Иньярриту) [2015, Триллер, драма, приключения, вестерн , WEB-DLRip 1080p] [iTunes , ESAREV , Ukrainian , English] + [Subs Rus , Eng , Ukr]

Враг Нароода

5 | 0

6.58 ГБ

В этой теме нет новых непрочитанных сообщений. Бесконечно белый медведь / Infinitely Polar Bear [Драма, комедия, 2014] BDRip 720p, Mvo [Лицензия]

Dracon

520 | 69

5.63 ГБ


Начать новую тему Ответить на тему  [ 1 сообщение ] 




Для Мосгорсуда, Роскомнадзора и рекламодателей:: mosgorsud-torrent[собачка]yandex.ru
cron