Торрент файл
скачать торрент магнет ссылка Добавлен: 28 фев 2015, 11:37
Размер: 3.09 ГБ
Сидеров: 10
Личеров: 4
Автор

СообщениеДобавлено: 28 фев 2015, 11:37 

Не в сети
Зам. Админа
Аватара пользователя
Дата регистрации:
02 дек 2010, 12:39
Спасибо: 12642 / 214
Сообщения: 28010
Год выхода: 2015
Жанр: ужасы, фэнтези
Режиссер: Рене Перез
В ролях: Луи Амбри, Роберт Эмстлер, Робер С. Диксон, Алланна Форте, Колин Хасси, Ирен Леви, Джейсон Джей Прадо, Мэрилин Робран, Джон Скудери

О фильме:
Хоррор-версия классической сказки братьев Гримм с небольшим налетом бредового сюра.

Качество: BDRip [720p]
Видео: AVC at 4619 Кбит/сек 1280 x 720 (1.778) at 23.976 fps
Аудио: AC-3 at 192 Кбит/сек 2 канала, 48,0 КГц Русский
Аудио: AC-3 at 640 Кбит/сек 6 каналов, 48,0 КГц Английский
Продолжительность: 01:21:13
Перевод: Любительский (двухголосый) [DeadSno & den904]

Общее
Уникальный идентификатор                 : 238372607150633318167606942659287880704 (0xB354E4EA820317CE85937B378BDE9400)
Полное имя                               : Krasnaja.shapochka.2015.L2.BDRip.720p.mkv
Формат                                   : Matroska
Версия формата                           : Version 4 / Version 2
Размер файла                             : 3,09 Гбайт
Продолжительность                        : 1 ч. 21 м.
Общий поток                              : 5452 Кбит/сек
Дата кодирования                         : UTC 2015-02-27 23:45:13
Программа кодирования                    : mkvmerge v6.1.0 ('Old Devil') built on Mar  4 2013 09:10:42
Библиотека кодирования                   : libebml v1.3.0 + libmatroska v1.4.0

Видео
Идентификатор                            : 1
Формат                                   : AVC
Формат/Информация                        : Advanced Video Codec
Профиль формата                          : High@L4.1
Параметр CABAC формата                   : Да
Параметр ReFrames формата                : 5 кадров
Идентификатор кодека                     : V_MPEG4/ISO/AVC
Продолжительность                        : 1 ч. 21 м.
Битрейт                                  : 4619 Кбит/сек
Ширина                                   : 1280 пикселей
Высота                                   : 720 пикселей
Соотношение сторон                       : 16:9
Режим частоты кадров                     : Постоянный
Частота кадров                           : 23,976 кадра/сек
Цветовое пространство                    : YUV
Субдискретизация насыщенности            : 4:2:0
Битовая глубина                          : 8 бит
Тип развёртки                            : Прогрессивная
Бит/(Пиксели*Кадры)                      : 0.209
Размер потока                            : 2,56 Гбайт (83%)
Библиотека кодирования                   : x264 core 144 r2525 40bb568
Настройки программы                      : cabac=1 / ref=5 / deblock=1:0:0 / analyse=0x3:0x133 / me=umh / subme=7 / psy=1 / psy_rd=1.00:0.00 / mixed_ref=1 / me_range=16 / chroma_me=1 / trellis=1 / 8x8dct=1 / cqm=0 / deadzone=21,11 / fast_pskip=0 / chroma_qp_offset=-2 / threads=6 / lookahead_threads=1 / sliced_threads=0 / nr=0 / decimate=1 / interlaced=0 / bluray_compat=0 / constrained_intra=0 / bframes=3 / b_pyramid=2 / b_adapt=2 / b_bias=0 / direct=3 / weightb=1 / open_gop=0 / weightp=2 / keyint=250 / keyint_min=23 / scenecut=40 / intra_refresh=0 / rc_lookahead=50 / rc=2pass / mbtree=1 / bitrate=4619 / ratetol=1.0 / qcomp=0.60 / qpmin=0 / qpmax=69 / qpstep=4 / cplxblur=20.0 / qblur=0.5 / ip_ratio=1.40 / aq=1:1.00
Язык                                     : English
Default                                  : Да
Forced                                   : Нет

Аудио #1
Идентификатор                            : 2
Формат                                   : AC-3
Формат/Информация                        : Audio Coding 3
Расширение режима                        : CM (complete main)
Параметр Endianness формата              : Big
Идентификатор кодека                     : A_AC3
Продолжительность                        : 1 ч. 21 м.
Вид битрейта                             : Постоянный
Битрейт                                  : 192 Кбит/сек
Каналы                                   : 2 канала
Расположение каналов                     : Front: L R
Частота                                  : 48,0 КГц
Битовая глубина                          : 16 бит
Метод сжатия                             : С потерями
Размер потока                            : 112 Мбайт (4%)
Язык                                     : Russian
Default                                  : Да
Forced                                   : Нет

Аудио #2
Идентификатор                            : 3
Формат                                   : AC-3
Формат/Информация                        : Audio Coding 3
Расширение режима                        : CM (complete main)
Параметр Endianness формата              : Big
Идентификатор кодека                     : A_AC3
Продолжительность                        : 1 ч. 21 м.
Вид битрейта                             : Постоянный
Битрейт                                  : 640 Кбит/сек
Каналы                                   : 6 каналов
Расположение каналов                     : Front: L C R, Side: L R, LFE
Частота                                  : 48,0 КГц
Битовая глубина                          : 16 бит
Метод сжатия                             : С потерями
Размер потока                            : 372 Мбайт (12%)
Язык                                     : English
Default                                  : Нет
Forced                                   : Нет

Меню
00:00:00.000                             : en:Chapter 01
00:09:59.765                             : en:Chapter 02
00:20:00.365                             : en:Chapter 03
00:30:00.131                             : en:Chapter 04
00:39:59.897                             : en:Chapter 05
00:49:59.663                             : en:Chapter 06
01:00:00.263                             : en:Chapter 07
01:10:00.029                             : en:Chapter 08
01:19:59.795                             : en:Chapter 09








реклама партнёра


Вернуться к началу
 Профиль  
 
   Похожие торренты   Автор   Торрент   Размер 
В этой теме нет новых непрочитанных сообщений. Красная шапочка  / Little Red Riding Hood (Рене Перез) [ужасы, фэнтези, 2015] HDRip, dvo

Dracon

8 | 3

1.36 ГБ

В этой теме нет новых непрочитанных сообщений. Маленькая мертвая шапочка / Little Dead Rotting Hood [ужасы, 2016] BDRip 720p, Dvo

salma3

577 | 59

3.39 ГБ

В этой теме нет новых непрочитанных сообщений. Пылающие мертвецы / The Burning Dead (Рене Перез) [боевик, ужасы, 2015] HDRip, avo

Dracon

28 | 3

1.45 ГБ

В этой теме нет новых непрочитанных сообщений. Охота за мертвецом  / Prey for Death (Рене Перез) [Вестерн, 2015] HDRip, avo

Dracon

6 | 0

1.36 ГБ

В этой теме нет новых непрочитанных сообщений. Охота за мертвецом / Prey for Death (Рене Перез) [Вестерн, 2015] Blu-Ray Remux 1080p, avo+sub [3D-Video]

Dracon

109 | 25

20.84 ГБ

В этой теме нет новых непрочитанных сообщений. Маленькая мертвая шапочка / Little Dead Rotting Hood [ужасы, 2016] HDRip, Dvo

salma3

152 | 9

1.45 ГБ

В этой теме нет новых непрочитанных сообщений. Лепрекон 6: Домой / Leprechaun: Back 2 tha Hood [ужасы, фэнтези, комедия, 2003] BDRip, Dvo

salma3

24 | 4

1.45 ГБ


Начать новую тему Ответить на тему  [ 1 сообщение ] 




Для Мосгорсуда, Роскомнадзора и рекламодателей:: mosgorsud-torrent[собачка]yandex.ru
cron