Торрент файл
скачать торрент магнет ссылка Добавлен: 26 фев 2015, 14:04
Размер: 3.17 ГБ
Сидеров: 16
Личеров: 5
Автор

СообщениеДобавлено: 26 фев 2015, 14:04 

Не в сети
Супермодератор
Аватара пользователя
Дата регистрации:
15 фев 2012, 16:44
Возраст: 28
Спасибо: 6563 / 2129
Сообщения: 43556
Год выхода: 2012
Жанр: Боевик, триллер, драма, криминал
Режиссер: Уэйн Роуз
В ролях: Стивен Сигал, Сара Линд, Локлин Манро, Джесси Хатч, Стюарт Уильям Биг Слипс, Меган Ори, Уоррен Кристи, Адриан Холмс, Адриан Хью, Таная Битти, Зак Сантьяго

О фильме:
Быть копом нелегко, и в этом не раз убеждался бывалый детектив Элайя Кейн, повидавший на своём веку немало драк, перестрелок, локальных войн и жестоких схваток. В этом он уверяет и свой отряд полицейских-коллег и напарников, большинство из которых являются совсем зелёными новичками. Однако, жизнь на улицах города является столь же непростой, сколь и опасной, поэтому блюстители закона и охранники правопорядка вынуждены день за днём пресекать правонарушения и предотвращать преступления, ловить бандитов и арестовывать наркоторговцев. Опытный Элайя во всём помогает и способствует юным законникам, а также вразумляет и наставляет их на путь праведный. Постепенно улицы очищаются от маргинальных нечистот и презирающих закон лиц, но всё новые проблемы и неприятности дают знать, что южному правосудию не быть невостребованным. Элайя Кейн и его верная команда помощников ни на шаг не отступят от своего, продолжая лоббировать букву закона повсеместно и там, где, кажется, её не уважают и вовсе не признают. Они непременно добьются, чтобы все и каждый чтили, понимали и принимали Закон в его истинном проявлении. Ведь это та самая Южная справедливость, всегда одерживающая верх и постоянно побеждающая, в чём сомневаться практически бесполезно…



Страна: Канада, США
Студия: True Justice 1 Productions, Voltage Pictures
Продолжительность: 01:30:45
Перевод: Дублированный (Рен ТВ)

Файл
Кодек: x264
Качество: BDRip 720p
Видео: MPEG-4 AVC, 3300 Кбит/с, 1280x720, 23.976 кадр/с
Звук:
Аудио #1: Русский (AC3, 2 ch, 192 Кбит/с) / Дублированный (Рен ТВ)
Аудио #2: Английский (DTS, 6 ch, 1509 Кбит/с)

Семпл

Общее
Уникальный идентификатор : 223529879981663718423649181406909212055 (0xA82A49F775E15A69A36F59998B98A597)
Полное имя : H:ФильмСделать русский переводГотовые сделаные релизыTrue.Justice.Blood.Alley.2012.x264.BDRip.720p-MediaClub.mkv
Формат : Matroska
Версия формата : Version 2
Размер файла : 3,17 Гбайт
Продолжительность : 1 ч. 30 м.
Общий поток : 5000 Кбит/сек
Название фильма : True Justice: Blood Alley (2012) BDRip 720p -MediaClub- [Викс]
Дата кодирования : UTC 2015-02-22 20:08:52
Программа кодирования : mkvmerge v5.8.0 ('No Sleep / Pillow') built on Sep 2 2012 15:37:04
Библиотека кодирования : libebml v1.2.3 + libmatroska v1.3.0

Видео
Идентификатор : 1
Формат : AVC
Формат/Информация : Advanced Video Codec
Профиль формата : High@L4.1
Параметр CABAC формата : Да
Параметр ReFrames формата : 9 кадров
Идентификатор кодека : V_MPEG4/ISO/AVC
Продолжительность : 1 ч. 30 м.
Битрейт : 3300 Кбит/сек
Ширина : 1280 пикселей
Высота : 720 пикселей
Соотношение сторон : 16:9
Режим частоты кадров : Постоянный
Частота кадров : 23,976 кадра/сек
Цветовое пространство : YUV
Субдискретизация насыщенности : 4:2:0
Битовая глубина : 8 бит
Тип развёртки : Прогрессивная
Бит/(Пиксели*Кадры) : 0.149
Размер потока : 2,03 Гбайт (64%)
Библиотека кодирования : x264 core 125 r2208 d9d2288
Настройки программы : cabac=1 / ref=9 / deblock=1:-3:-3 / analyse=0x3:0x133 / me=umh / subme=11 / psy=1 / psy_rd=1.00:0.25 / mixed_ref=1 / me_range=48 / chroma_me=1 / trellis=2 / 8x8dct=1 / cqm=0 / deadzone=21,11 / fast_pskip=0 / chroma_qp_offset=-4 / threads=12 / lookahead_threads=2 / sliced_threads=0 / nr=0 / decimate=1 / interlaced=0 / bluray_compat=0 / constrained_intra=0 / bframes=8 / b_pyramid=2 / b_adapt=2 / b_bias=0 / direct=3 / weightb=1 / open_gop=0 / weightp=2 / keyint=240 / keyint_min=24 / scenecut=40 / intra_refresh=0 / rc=2pass / mbtree=0 / bitrate=3300 / ratetol=1.0 / qcomp=0.60 / qpmin=0 / qpmax=69 / qpstep=4 / cplxblur=20.0 / qblur=0.5 / ip_ratio=1.40 / pb_ratio=1.30 / aq=1:1.00
Язык : English
Default : Да
Forced : Нет

Аудио #1
Идентификатор : 2
Формат : AC-3
Формат/Информация : Audio Coding 3
Расширение режима : CM (complete main)
Параметр Endianness формата : Big
Идентификатор кодека : A_AC3
Продолжительность : 1 ч. 30 м.
Вид битрейта : Постоянный
Битрейт : 192 Кбит/сек
Каналы : 2 канала
Расположение каналов : Front: L R
Частота : 48,0 КГц
Битовая глубина : 16 бит
Метод сжатия : С потерями
Размер потока : 125 Мбайт (4%)
Язык : Russian
Default : Да
Forced : Нет

Аудио #2
Идентификатор : 3
Формат : DTS
Формат/Информация : Digital Theater Systems
Режим : 16
Параметр Endianness формата : Big
Идентификатор кодека : A_DTS
Продолжительность : 1 ч. 30 м.
Вид битрейта : Постоянный
Битрейт : 1509 Кбит/сек
Каналы : 6 каналов
Расположение каналов : Front: L C R, Side: L R, LFE
Частота : 48,0 КГц
Битовая глубина : 24 бит
Метод сжатия : С потерями
Размер потока : 980 Мбайт (30%)
Язык : English
Default : Нет
Forced : Нет

Меню
00:00:00.000 : :Chapter 01
00:05:57.106 : :Chapter 02
00:09:43.541 : :Chapter 03
00:16:40.124 : :Chapter 04
00:26:38.096 : :Chapter 05
00:33:47.859 : :Chapter 06
00:43:19.138 : :Chapter 07
00:50:54.301 : :Chapter 08
00:58:46.272 : :Chapter 09
01:05:27.923 : :Chapter 10
01:16:23.704 : :Chapter 11
01:27:43.758 : :Chapter 12


Релиз от: Рип, работа с аудио - Викс


_________________
Проголосуй за трекер Открытый торрент трекер - RUS-MEDIA.ORG

Проголосуй Открытый торрент трекер - RUS-MEDIA.ORG



реклама партнёра


Вернуться к началу
 Профиль Отправить личное сообщение  
 
   Похожие торренты   Автор   Торрент   Размер 
В этой теме нет новых непрочитанных сообщений. Перекресток смерти / True Justice [Боевик, триллер, драма, криминал, 2012] BDRemux 1080p, Dub [РЕН ТВ]

salma3

5 | 8

22.22 ГБ

В этой теме нет новых непрочитанных сообщений. Во имя справедливости / Out For Justice [Боевик, триллер, драма, криминал, 1991] BDRip 720p, Dub+Dvo+Mvo+Avo

salma3

16 | 8

5.5 ГБ

В этой теме нет новых непрочитанных сообщений. Посланник смерти / Messenger of Death [боевик, триллер, криминал, 1988] BDRip 720p, Mvo

salma3

22 | 27

6.35 ГБ

В этой теме нет новых непрочитанных сообщений. Жажда смерти 5: Лик смерти / Death Wish V: The Face of Death [Боевик, Криминал, Триллер, 1994] BDRip-AVC, mvo

salma3

17 | 4

2.85 ГБ

В этой теме нет новых непрочитанных сообщений. Контрабанда / Contraband [боевик, триллер, драма, криминал, 2012] BDRip 720p, Dub+Avo+Sub

salma3

108 | 33

7.63 ГБ

В этой теме нет новых непрочитанных сообщений. Перекресток 48 / Junction 48 (Уди Алони / Udi Aloni) [2016г., Израиль, боевик, триллер, драма, криминал, биография, музыка, DVDRip] MVO

Alfredovich

0 | 0

1.37 ГБ

В этой теме нет новых непрочитанных сообщений. Правосудие для всех / ...And Justice for All [триллер, драма, криминал, 1979] BDRip, Mvo [Первый кана]

salma3

21 | 17

1.46 ГБ


Начать новую тему Ответить на тему  [ 1 сообщение ] 




Для Мосгорсуда, Роскомнадзора и рекламодателей:: mosgorsud-torrent[собачка]yandex.ru