Торрент файл
скачать торрент магнет ссылка Добавлен: 24 фев 2015, 15:01
Размер: 9.1 ГБ
Сидеров: 17
Личеров: 7
Автор

СообщениеДобавлено: 24 фев 2015, 15:01 

Не в сети
Супермодератор
Аватара пользователя
Дата регистрации:
15 фев 2012, 16:44
Возраст: 28
Спасибо: 7165 / 2147
Сообщения: 62356
Год выпуска: 1988
Страна: Гонконг
Жанр: комедия, боевые искусства
Режиссёр: Саммо Хунг / Sammo Hung Kam-Bo, Кори Юэнь / Corey Yuen
В ролях: Джеки Чан, Саммо Хунг, Юэнь Бьяо, Динни Йип, Полин Юнг, Кристал Квок, Юэнь Ва, Бенни Уркидез, Билли Чоу, Вонг Ю, Вонг Юк-Ван, Ву Ма, Ву Фунг, Джеймс Тьен, Джонни Чеунг, Дик Вей, Лам Вэй, Ло Лье, Рой Чао, Стэнли фунг, Тай По, Филлип Ко, Фунг Хак-Он, Чан Лунг, Чин Кар-Лок, Чунг Фат, Шинг Фу-Он
Продолжительность: 01:33:42
Озвучание: Профессиональный(многоголосый) ТНТ, Профессиональный(многоголосый, закадровый) TV 1000 ACTION, Авторский(одноголосый) Визгунов, Авторский(одноголосый) Живов.

Описание: Государственный адвокат Джонни (Джеки Чан) получает в качестве подзащитного бизнесмена – владельца завода, который отравляет воды соседнего озера, принадлежащего героине Динни Йип. Пытаясь разобраться в этом деле, Джонни привлекает двух своих друзей (Саммо Хунг и Юэнь Бьяо), сам в это время втираясь в доверие к кузине оппонентки (Полин Юнг). Но, как обычно, в дело вмешивается любовь, а на заводе, как вовремя выясняется, производятся наркотики, так что сомнений, чью сторону выбрать, у Джонни не возникает.



Качество: BDRip 1080p
Формат: MKV
Видео: H264, 1920x1040, 24fps, 12.9 Mbps, Bits 0.269
Аудио #1: Dolby AC3, 48000Hz, stereo, 192kbps - MVO ТНТ
Аудио #2: Dolby AC3, 48000Hz, stereo, 192kbps - MVO TV 1000 Action
Аудио #3: Dolby AC3, 48000Hz, 6ch, 448kbps - AVO Визгунов
Аудио #4: Dolby AC3, 48000Hz, stereo, 192kbps - AVO Живов
Сэмпл: Скачать

General
Unique ID : 192234555478055387792263551355035278200 (0x909F07572FD4D665BC71074091335B78)
Complete name : E:Фильмы и сериалыDragons Forever.1988.BDRip.1080p.mkv
Format : Matroska
Format version : Version 4 / Version 2
File size : 9.10 GiB
Duration : 1h 33mn
Overall bit rate : 13.9 Mbps
Encoded date : UTC 2015-02-24 07:47:44
Writing application : mkvmerge v7.6.0 ('Garden of Dreams') 64bit built on Feb 8 2015 13:04:34
Writing library : libebml v1.3.1 + libmatroska v1.4.2
DURATION : 01:33:32.640000000
NUMBER_OF_FRAMES : 175395
NUMBER_OF_BYTES : 134703360
_STATISTICS_WRITING_APP : mkvmerge v7.6.0 ('Garden of Dreams') 64bit built on Feb 8 2015 13:04:34
_STATISTICS_WRITING_DATE_UTC : 2015-02-24 07:47:44
_STATISTICS_TAGS : BPS DURATION NUMBER_OF_FRAMES NUMBER_OF_BYTES

Video
ID : 1
Format : AVC
Format/Info : Advanced Video Codec
Format profile : High@L4.1
Format settings, CABAC : Yes
Format settings, ReFrames : 4 frames
Codec ID : V_MPEG4/ISO/AVC
Duration : 1h 33mn
Bit rate : 12.9 Mbps
Width : 1 920 pixels
Height : 1 040 pixels
Display aspect ratio : 1.85:1
Frame rate mode : Constant
Frame rate : 24.000 fps
Color space : YUV
Chroma subsampling : 4:2:0
Bit depth : 8 bits
Scan type : Progressive
Bits/(Pixel*Frame) : 0.269
Stream size : 8.25 GiB (91%)
Title : Burn
Writing library : x264 core 142 r2479 dd79a61
Encoding settings : cabac=1 / ref=4 / deblock=0:0:0 / analyse=0x3:0x10 / me=umh / subme=11 / psy=0 / mixed_ref=1 / me_range=48 / chroma_me=1 / trellis=2 / 8x8dct=1 / cqm=0 / deadzone=21,11 / fast_pskip=0 / chroma_qp_offset=0 / threads=12 / lookahead_threads=2 / sliced_threads=0 / nr=0 / decimate=1 / interlaced=0 / bluray_compat=0 / constrained_intra=0 / bframes=8 / b_pyramid=2 / b_adapt=2 / b_bias=0 / direct=3 / weightb=1 / open_gop=0 / weightp=2 / keyint=230 / keyint_min=23 / scenecut=40 / intra_refresh=0 / rc=2pass / mbtree=0 / bitrate=12876 / ratetol=1.0 / qcomp=0.60 / qpmin=0 / qpmax=69 / qpstep=4 / cplxblur=20.0 / qblur=0.5 / ip_ratio=1.40 / pb_ratio=1.30 / aq=2:1.00
Language : Chinese
Default : Yes
Forced : No
DURATION : 01:33:41.630000000
NUMBER_OF_FRAMES : 134919
NUMBER_OF_BYTES : 9047460901
_STATISTICS_WRITING_APP : mkvmerge v7.6.0 ('Garden of Dreams') 64bit built on Feb 8 2015 13:04:34
_STATISTICS_WRITING_DATE_UTC : 2015-02-24 07:47:44
_STATISTICS_TAGS : BPS DURATION NUMBER_OF_FRAMES NUMBER_OF_BYTES

Audio #1
ID : 2
Format : AC-3
Format/Info : Audio Coding 3
Mode extension : CM (complete main)
Format settings, Endianness : Big
Codec ID : A_AC3
Duration : 1h 33mn
Bit rate mode : Constant
Bit rate : 192 Kbps
Channel(s) : 2 channels
Channel positions : Front: L R
Sampling rate : 48.0 KHz
Bit depth : 16 bits
Compression mode : Lossy
Stream size : 129 MiB (1%)
Title : MVO TNT
Language : Russian
Default : Yes
Forced : No

Audio #2
ID : 3
Format : AC-3
Format/Info : Audio Coding 3
Mode extension : CM (complete main)
Format settings, Endianness : Big
Codec ID : A_AC3
Duration : 1h 33mn
Bit rate mode : Constant
Bit rate : 192 Kbps
Channel(s) : 2 channels
Channel positions : Front: L R
Sampling rate : 48.0 KHz
Bit depth : 16 bits
Compression mode : Lossy
Stream size : 129 MiB (1%)
Title : MVO TV 1000 Action
Language : Russian
Default : No
Forced : No

Audio #3
ID : 4
Format : AC-3
Format/Info : Audio Coding 3
Mode extension : CM (complete main)
Format settings, Endianness : Big
Codec ID : A_AC3
Duration : 1h 33mn
Bit rate mode : Constant
Bit rate : 448 Kbps
Channel(s) : 6 channels
Channel positions : Front: L C R, Side: L R, LFE
Sampling rate : 48.0 KHz
Bit depth : 16 bits
Compression mode : Lossy
Stream size : 300 MiB (3%)
Title : AVO Vizgunov
Language : Russian
Default : No
Forced : No

Audio #4
ID : 5
Format : AC-3
Format/Info : Audio Coding 3
Mode extension : CM (complete main)
Format settings, Endianness : Big
Codec ID : A_AC3
Duration : 1h 33mn
Bit rate mode : Constant
Bit rate : 192 Kbps
Channel(s) : 2 channels
Channel positions : Front: L R
Sampling rate : 48.0 KHz
Bit depth : 16 bits
Compression mode : Lossy
Stream size : 129 MiB (1%)
Title : Zhyvov
Language : Russian
Default : No
Forced : No

Menu
00:00:00.000 : :(безымянный)
00:02:29.667 : :(безымянный)
00:11:30.250 : :(безымянный)
00:14:26.333 : :(безымянный)
00:18:38.292 : :(безымянный)
00:24:14.458 : :(безымянный)
00:28:55.625 : :(безымянный)
00:32:14.958 : :(безымянный)
00:35:27.792 : :(безымянный)
00:40:14.292 : :(безымянный)
00:45:55.667 : :(безымянный)
00:51:08.875 : :(безымянный)
00:56:50.333 : :(безымянный)
01:02:09.958 : :(безымянный)
01:05:12.833 : :(безымянный)
01:11:51.917 : :(безымянный)
01:18:01.583 : :(безымянный)
01:24:57.792 : :(безымянный)
01:31:36.250 : :(безымянный)






Автор рипа: Burn


_________________
Проголосуй за трекер Открытый торрент трекер - RUS-MEDIA.ORG

Проголосуй Открытый торрент трекер - RUS-MEDIA.ORG


Вернуться к началу
 Профиль Отправить личное сообщение  
 
   Похожие торренты   Автор   Торрент   Размер 
В этой теме нет новых непрочитанных сообщений. Охота за кристаллом / No foh wai lung [Боевик, боевые искусства, 1991] DVDRip-AVC, Mvo

salma3

22 | 5

1.98 ГБ

В этой теме нет новых непрочитанных сообщений. Нина навсегда / Nina Forever [ужасы, мелодрама, комедия, 2015] BDRip 1080p, Dub [чистый звук]

salma3

214 | 68

8.24 ГБ

В этой теме нет новых непрочитанных сообщений. Великолепный мясник / Lin Shi Rong [Боевик, боевые искусства, комедия, 1979] BDRip 1080p, Avo

salma3

73 | 19

7.87 ГБ

В этой теме нет новых непрочитанных сообщений. Бесстрашная гиена 2 / Long teng hu yue [Боевик, боевые искусства, комедия, 1983] BDRip 1080p, Mvo

salma3

13 | 7

5.85 ГБ

В этой теме нет новых непрочитанных сообщений. Астральное кунг-фу / Quan jing [Боевик, боевые искусства, комедия, 1987] BDRip 1080p. Mvo

salma3

6 | 6

6.41 ГБ

В этой теме нет новых непрочитанных сообщений. Драка в Бэттл-Крик / The Battle Creek Brawl [Боевик, комедия, боевые искусства, 1980] BDRip 1080p , Mvo

salma3

6 | 10

7.25 ГБ

В этой теме нет новых непрочитанных сообщений. Бэтмен навсегда / Batman Forever [фэнтези, боевик, 1995] BDRip 1080p, Dub

salma3

13 | 6

8.6 ГБ


Начать новую тему Ответить на тему  [ 1 сообщение ] 




Для Мосгорсуда, Роскомнадзора и рекламодателей:: mosgorsud-torrent[собачка]yandex.ru
cron