Торрент файл
скачать торрент магнет ссылка Добавлен: 23 фев 2015, 15:58
Размер: 10.2 ГБ
Сидеров: 0
Личеров: 3
Автор

СообщениеДобавлено: 23 фев 2015, 15:58 

Не в сети
Зам. Админа
Аватара пользователя
Дата регистрации:
02 дек 2010, 12:39
Спасибо: 12656 / 214
Сообщения: 28010
Год выхода: 2014
Жанр: драма, биография, музыка
Режиссер: Тейт Тейлор
В ролях: Чэдвик Боузман, Нелсан Эллис, Дэн Эйкройд, Виола Дэвис, Октавия Спенсер, Кейт Робинсон, Ленни Джеймс, Крэйг Робинсон, Билли Слотер, Ричи Монтгомери

О фильме:
В основу фильма легла невероятная история жизни кумира миллионов, иконы сцены — Джеймса Брауна. Его боготворили не только фанаты, но и музыканты. Он был легендой эпохи — его имя одним из первых включили в Зал славы рок-н-ролла.



Качество: BDRip [1080p]
Видео: MPEG-4 AVC/H.264, ~8632 kbps, 1920х1040, 23,976 fps
Аудио 1: русский, AC3, 6 ch, 384 kbps, 48 kHz      
Аудио 2: английский, DTS, 6 ch, 1509 kbps, 48 kHz
Продолжительность: 02:18:50
Перевод: Дублированный [iTunes]
Субтитры: английские
E:с торрентовGet.On.Up.2014.1080p.BDRip.mkv
  General
    Unique ID : 223209911464993815969979536996721687223 (0xA7ECAA4D0050A8DC9822A57F87D6FAB7)
    Complete name : E:с торрентовGet.On.Up.2014.1080p.BDRip.mkv
    Format : Matroska
    Format version : Version 2
    File size : 10.2 GiB
    Duration : 2h 18mn
    Overall bit rate : 10.5 Mbps
    Encoded date : UTC 2015-02-23 06:48:47
    Writing application : mkvmerge v5.2.0 ('I can't explain') built on Dec 18 2011 18:12:03
    Writing library : libebml v1.2.3 + libmatroska v1.3.0
  Video #1
    ID : 1
    Format : AVC
    Format/Info : Advanced Video Codec
    Format profile : High@L4.1
    Format settings, CABAC : Yes
    Format settings, ReFrames : 4 frames
    Codec ID : V_MPEG4/ISO/AVC
    Duration : 2h 18mn
    Bit rate : 8 632 Kbps
    Width : 1 920 pixels
    Height : 1 040 pixels
    Display aspect ratio : 1.85:1
    Frame rate mode : Constant
    Frame rate : 23.976 fps
    Color space : YUV
    Chroma subsampling : 4:2:0
    Bit depth : 8 bits
    Scan type : Progressive
    Bits/(Pixel*Frame) : 0.180
    Stream size : 8.17 GiB (80%)
    Writing library : x264 core 142 r2479 dd79a61
    Encoding settings : cabac=1 / ref=4 / deblock=1:0:0 / analyse=0x3:0x133 / me=umh / subme=7 / psy=1 / psy_rd=1.00:0.00 / mixed_ref=1 / me_range=16 / chroma_me=1 / trellis=1 / 8x8dct=1 / cqm=0 / deadzone=21,11 / fast_pskip=0 / chroma_qp_offset=-2 / threads=18 / lookahead_threads=3 / sliced_threads=0 / nr=0 / decimate=1 / interlaced=0 / bluray_compat=0 / constrained_intra=0 / bframes=3 / b_pyramid=2 / b_adapt=1 / b_bias=0 / direct=1 / weightb=1 / open_gop=0 / weightp=2 / keyint=250 / keyint_min=23 / scenecut=40 / intra_refresh=0 / rc_lookahead=40 / rc=2pass / mbtree=1 / bitrate=8632 / ratetol=1.0 / qcomp=0.60 / qpmin=0 / qpmax=69 / qpstep=4 / cplxblur=20.0 / qblur=0.5 / ip_ratio=1.40 / aq=1:1.00
    Language : English
    Default : Yes
    Forced : No
  Audio #2
    ID : 2
    Format : AC-3
    Format/Info : Audio Coding 3
    Mode extension : CM (complete main)
    Format settings, Endianness : Big
    Codec ID : A_AC3
    Duration : 2h 18mn
    Bit rate mode : Constant
    Bit rate : 384 Kbps
    Channel(s) : 6 channels
    Channel positions : Front: L C R, Side: L R, LFE
    Sampling rate : 48.0 KHz
    Bit depth : 16 bits
    Compression mode : Lossy
    Stream size : 381 MiB (4%)
    Title : DUB, iTunes
    Language : Russian
    Default : Yes
    Forced : No
  Audio #3
    ID : 3
    Format : DTS
    Format/Info : Digital Theater Systems
    Mode : 16
    Format settings, Endianness : Big
    Codec ID : A_DTS
    Duration : 2h 18mn
    Bit rate mode : Constant
    Bit rate : 1 509 Kbps
    Channel(s) : 6 channels
    Channel positions : Front: L C R, Side: L R, LFE
    Sampling rate : 48.0 KHz
    Bit depth : 24 bits
    Compression mode : Lossy
    Stream size : 1.46 GiB (14%)
    Title : Original
    Language : English
    Default : No
    Forced : No
  Text #4
    ID : 4
    Format : UTF-8
    Codec ID : S_TEXT/UTF8
    Codec ID/Info : UTF-8 Plain Text
    Language : English
    Default : No
    Forced : No
  Text #5
    ID : 5
    Format : UTF-8
    Codec ID : S_TEXT/UTF8
    Codec ID/Info : UTF-8 Plain Text
    Title : SDH
    Language : English
    Default : No
    Forced : No
  Menu
    00:00:00.000 : en:00:00:00.000
    00:06:14.165 : en:00:06:14.165
    00:12:15.026 : en:00:12:15.026
    00:20:25.015 : en:00:20:25.015
    00:28:16.403 : en:00:28:16.403
    00:33:14.618 : en:00:33:14.618
    00:40:56.204 : en:00:40:56.204
    00:46:56.230 : en:00:46:56.230
    00:53:33.961 : en:00:53:33.961
    00:59:33.487 : en:00:59:33.487
    01:05:10.365 : en:01:05:10.365
    01:09:50.895 : en:01:09:50.895
    01:15:46.834 : en:01:15:46.834
    01:22:56.513 : en:01:22:56.513
    01:32:55.779 : en:01:32:55.779
    01:42:11.125 : en:01:42:11.125
    01:50:40.509 : en:01:50:40.509
    01:58:14.379 : en:01:58:14.379
    02:04:31.506 : en:02:04:31.506
    02:10:59.852 : en:02:10:59.852











Вернуться к началу
 Профиль  
 
   Похожие торренты   Автор   Торрент   Размер 
В этой теме нет новых непрочитанных сообщений. Танцовщица / La danseuse ( драма, биография, музыка, 2016) BDRip 1080p | iTunes

marya111

150 | 29

8.24 ГБ

В этой теме нет новых непрочитанных сообщений. Танцовщица / La danseuse ( драма, биография, музыка, 2016) BDRip | iTunes

marya111

44 | 4

2.03 ГБ

В этой теме нет новых непрочитанных сообщений. Голос улиц / Straight Outta Compton (Ф. Гэри Грей) [драма, биография, музыка, 2015] BDRip 720p, Dub [iTunes | Theatrical Cut]

Dracon

5167 | 283

3.7 ГБ

В этой теме нет новых непрочитанных сообщений. Танцовщица / La danseuse [драма, биография, музыка, 2016] BDRip 1080p, Mvo

salma3

177 | 97

8.09 ГБ

В этой теме нет новых непрочитанных сообщений. Голос улиц / Straight Outta Compton [драма, биография, музыка, 2015] BDRip 1080p, Dub [лицензия]

salma3

92 | 4

7.76 ГБ

В этой теме нет новых непрочитанных сообщений. Лето [Биография, музыка, драма, 2018] WEB-DLRip [iTunes]

salma3

1024 | 40

1.46 ГБ

В этой теме нет новых непрочитанных сообщений. Танцовщица / La danseuse (драма, биография, музыка, 2016) HDRip-AVC | iTunes

marya111

75 | 15

742.27 МБ


Начать новую тему Ответить на тему  [ 1 сообщение ] 




Для Мосгорсуда, Роскомнадзора и рекламодателей:: mosgorsud-torrent[собачка]yandex.ru
cron