Торрент файл
скачать торрент магнет ссылка Добавлен: 18 фев 2015, 14:40
Размер: 9.97 ГБ
Сидеров: 8
Личеров: 9
Автор

СообщениеДобавлено: 18 фев 2015, 14:40 

Не в сети
Супермодератор
Аватара пользователя
Дата регистрации:
15 фев 2012, 16:44
Возраст: 28
Спасибо: 6642 / 2146
Сообщения: 45622
Год выпуска: 1988
Страна: Франция
Жанр: мелодрама, комедия
Продолжительность: 01:43:58
Перевод: дублированный, профессиональный многоголосый, одноголосый закадровый
Субтитры: нет

Режиссёр: Клод Пиното

В ролях: Софи Марсо, Венсан Линдон, Элизабет Витали, Жан-Клод Легэ, Элена Помпеи, Роберто Эттиэс, Бриджитт Шамаранд, Кристиан Перейра, Беппе Черличи, Натали Манн

Описание: Валентина выросла, ей исполнился двадцать один год, и она сейчас подрабатывает учительницей, готовясь к важным экзаменам в университете. В это время она встречает Неда, музыканта, который надеется когда-нибудь стать композитором. Несмотря на то что они оба работают в разное время и с трудом находят время для встреч, между ними возникает пылкая связь. И на экзамене в Сорбонне Валентина анализирует свои отношения с Недом при рассмотрении сухой диссертации по мольеровскому «Мизантропу»...



Качество: BDRip 720p
Формат: MKV
Видео кодек: H.264
Аудио кодек: AC3, DTS
Видео: 7303 Кбит/с, 1280x688, 23.976 кадра/с, 0.346 bpp
Аудио 1: русский, AC3, 192 kbps, 1 ch, 48 kHz [дублированный]
Аудио 2: русский, AC3, 192 kbps, 2 ch, 48 kHz [профессиональный многоголосый, HTB+, CTC]
Аудио 3: русский, AC3, 192 kbps, 2 ch, 48 kHz [профессиональный многоголосый, Союз-Видео]
Аудио 4: русский, AC3, 192 kbps, 2 ch, 48 kHz [закадровый одноголосый, Н. Дружинина]

Отдельные файлы
Аудио: русский, DTS, 768 kbps, 1 ch, 48 kHz [дублированный]
Аудио: русский, DTS, 1509 kbps, 2 ch, 48 kHz [профессиональный многоголосый, HTB+, CTC]
Аудио: русский, DTS, 1509 kbps, 2 ch, 48 kHz [профессиональный многоголосый, Союз-Видео]
Аудио: русский, DTS, 1509 kbps, 2 ch, 48 kHz [закадровый одноголосый, Н. Дружинина]
Аудио: французский, AC3, 192 kbps, 2 ch, 48 kHz [оригинал]

Имеются неименованные главы/чаптеры.

Общее
Полное имя : D:VideoStudentka.1988.BDRip.720pStudentka.1988.AVO.rus.Н.Дружинина.dts
Формат : DTS
Формат/Информация : Digital Theater Systems
Размер файла : 1,10 Гбайт
Продолжительность : 1 ч. 43 м.
Режим общего битрейта : Постоянный
Общий поток : 1509 Кбит/сек

Аудио
Формат : DTS
Формат/Информация : Digital Theater Systems
Режим : 16
Параметр Endianness формата : Big
Продолжительность : 1 ч. 43 м.
Вид битрейта : Постоянный
Битрейт : 1509 Кбит/сек
Каналы : 2 канала
Расположение каналов : Front: L R
Частота : 48,0 КГц
Битовая глубина : 16 бит
Метод сжатия : С потерями
Размер потока : 1,10 Гбайт

Общее
Уникальный идентификатор : 243189936979526678058989098623758706648 (0xB6F4AD9D3891130DA71726ECC35F27D8)
Полное имя : D:VideoStudentka.1988.BDRip.720pStudentka.1988.BDRip.720p.mkv
Формат : Matroska
Версия формата : Version 4 / Version 2
Размер файла : 5,98 Гбайт
Продолжительность : 1 ч. 43 м.
Общий поток : 8235 Кбит/сек
Дата кодирования : UTC 2015-02-18 03:22:55
Программа кодирования : mkvmerge v7.6.0 ('Garden of Dreams') 64bit built on Feb 8 2015 13:04:34
Библиотека кодирования : libebml v1.3.1 + libmatroska v1.4.2
DURATION : 01:43:58.880000000
NUMBER_OF_FRAMES : 194965
NUMBER_OF_BYTES : 149733120
_STATISTICS_WRITING_APP : mkvmerge v7.6.0 ('Garden of Dreams') 64bit built on Feb 8 2015 13:04:34
_STATISTICS_WRITING_DATE_UTC : 2015-02-18 03:22:55
_STATISTICS_TAGS : BPS DURATION NUMBER_OF_FRAMES NUMBER_OF_BYTES

Видео
Идентификатор : 1
Формат : AVC
Формат/Информация : Advanced Video Codec
Профиль формата : High@L4.1
Параметр CABAC формата : Да
Параметр ReFrames формата : 9 кадров
Идентификатор кодека : V_MPEG4/ISO/AVC
Продолжительность : 1 ч. 43 м.
Битрейт : 7303 Кбит/сек
Ширина : 1280 пикселей
Высота : 688 пикселей
Соотношение сторон : 1,85:1
Режим частоты кадров : Постоянный
Частота кадров : 23,976 кадра/сек
Цветовое пространство : YUV
Субдискретизация насыщенности : 4:2:0
Битовая глубина : 8 бит
Тип развёртки : Прогрессивная
Бит/(Пиксели*Кадры) : 0.346
Размер потока : 5,30 Гбайт (89%)
Библиотека кодирования : x264 core 142 r2431 ac76440
Настройки программы : cabac=1 / ref=9 / deblock=1:-1:-1 / analyse=0x3:0x113 / me=umh / subme=10 / psy=1 / psy_rd=1.00:0.15 / mixed_ref=1 / me_range=32 / chroma_me=1 / trellis=2 / 8x8dct=1 / cqm=0 / deadzone=21,11 / fast_pskip=1 / chroma_qp_offset=-3 / threads=6 / lookahead_threads=1 / sliced_threads=0 / nr=0 / decimate=1 / interlaced=0 / bluray_compat=0 / constrained_intra=0 / bframes=8 / b_pyramid=2 / b_adapt=2 / b_bias=0 / direct=3 / weightb=1 / open_gop=0 / weightp=2 / keyint=230 / keyint_min=23 / scenecut=40 / intra_refresh=0 / rc_lookahead=40 / rc=crf / mbtree=0 / crf=18.0 / qcomp=0.60 / qpmin=0 / qpmax=69 / qpstep=4 / vbv_maxrate=40000 / vbv_bufsize=50000 / crf_max=0.0 / nal_hrd=none / filler=0 / ip_ratio=1.40 / pb_ratio=1.30 / aq=1:1.00
Язык : French
Default : Да
Forced : Нет
DURATION : 01:43:58.816000000
NUMBER_OF_FRAMES : 149582
NUMBER_OF_BYTES : 5821222684
_STATISTICS_WRITING_APP : mkvmerge v7.6.0 ('Garden of Dreams') 64bit built on Feb 8 2015 13:04:34
_STATISTICS_WRITING_DATE_UTC : 2015-02-18 03:22:55
_STATISTICS_TAGS : BPS DURATION NUMBER_OF_FRAMES NUMBER_OF_BYTES

Аудио #1
Идентификатор : 2
Формат : AC-3
Формат/Информация : Audio Coding 3
Расширение режима : CM (complete main)
Параметр Endianness формата : Big
Идентификатор кодека : A_AC3
Продолжительность : 1 ч. 43 м.
Вид битрейта : Постоянный
Битрейт : 192 Кбит/сек
Каналы : 1 канал
Расположение каналов : Front: C
Частота : 48,0 КГц
Битовая глубина : 16 бит
Метод сжатия : С потерями
Размер потока : 143 Мбайт (2%)
Заголовок : DUB
Язык : Russian
Default : Да
Forced : Нет

Аудио #2
Идентификатор : 3
Формат : AC-3
Формат/Информация : Audio Coding 3
Расширение режима : CM (complete main)
Параметр Endianness формата : Big
Идентификатор кодека : A_AC3
Продолжительность : 1 ч. 43 м.
Вид битрейта : Постоянный
Битрейт : 192 Кбит/сек
Каналы : 2 канала
Расположение каналов : Front: L R
Частота : 48,0 КГц
Битовая глубина : 16 бит
Метод сжатия : С потерями
Размер потока : 143 Мбайт (2%)
Заголовок : MVO (HTB+, CTC)
Язык : Russian
Default : Нет
Forced : Нет

Аудио #3
Идентификатор : 4
Формат : AC-3
Формат/Информация : Audio Coding 3
Расширение режима : CM (complete main)
Параметр Endianness формата : Big
Идентификатор кодека : A_AC3
Продолжительность : 1 ч. 43 м.
Вид битрейта : Постоянный
Битрейт : 192 Кбит/сек
Каналы : 2 канала
Расположение каналов : Front: L R
Частота : 48,0 КГц
Битовая глубина : 16 бит
Метод сжатия : С потерями
Размер потока : 143 Мбайт (2%)
Заголовок : MVO (Союз-Видео)
Язык : Russian
Default : Нет
Forced : Нет

Аудио #4
Идентификатор : 5
Формат : AC-3
Формат/Информация : Audio Coding 3
Расширение режима : CM (complete main)
Параметр Endianness формата : Big
Идентификатор кодека : A_AC3
Продолжительность : 1 ч. 43 м.
Вид битрейта : Постоянный
Битрейт : 192 Кбит/сек
Каналы : 2 канала
Расположение каналов : Front: L R
Частота : 48,0 КГц
Битовая глубина : 16 бит
Метод сжатия : С потерями
Размер потока : 143 Мбайт (2%)
Заголовок : VO (Н. Дружинина)
Язык : Russian
Default : Нет
Forced : Нет

Меню
00:00:00.000 : :Chapter 01
00:05:49.390 : :Chapter 02
00:09:29.110 : :Chapter 03
00:20:36.944 : :Chapter 04
00:29:01.406 : :Chapter 05
00:38:55.041 : :Chapter 06
00:44:43.055 : :Chapter 07
00:52:08.125 : :Chapter 08
00:55:08.305 : :Chapter 09
01:04:00.545 : :Chapter 10
01:10:14.835 : :Chapter 11
01:19:02.946 : :Chapter 12
01:26:43.615 : :Chapter 13
01:32:02.850 : :Chapter 14
01:43:58.148 : :Chapter 15

Общее
Полное имя : D:VideoStudentka.1988.BDRip.720pStudentka.1988.DUB.rus.dts
Формат : DTS
Формат/Информация : Digital Theater Systems
Размер файла : 571 Мбайт
Продолжительность : 1 ч. 43 м.
Режим общего битрейта : Постоянный
Общий поток : 768 Кбит/сек

Аудио
Формат : DTS
Формат/Информация : Digital Theater Systems
Режим : 16
Параметр Endianness формата : Big
Продолжительность : 1 ч. 43 м.
Вид битрейта : Постоянный
Битрейт : 768 Кбит/сек
Каналы : 1 канал
Расположение каналов : Front: C
Частота : 48,0 КГц
Битовая глубина : 16 бит
Метод сжатия : С потерями
Размер потока : 571 Мбайт (100%)

Общее
Полное имя : D:VideoStudentka.1988.BDRip.720pStudentka.1988.MVO.rus.НТВ+,СТС.dts
Формат : DTS
Формат/Информация : Digital Theater Systems
Размер файла : 1,10 Гбайт
Продолжительность : 1 ч. 43 м.
Режим общего битрейта : Постоянный
Общий поток : 1509 Кбит/сек

Аудио
Формат : DTS
Формат/Информация : Digital Theater Systems
Режим : 16
Параметр Endianness формата : Big
Продолжительность : 1 ч. 43 м.
Вид битрейта : Постоянный
Битрейт : 1509 Кбит/сек
Каналы : 2 канала
Расположение каналов : Front: L R
Частота : 48,0 КГц
Битовая глубина : 16 бит
Метод сжатия : С потерями
Размер потока : 1,10 Гбайт

Общее
Полное имя : D:VideoStudentka.1988.BDRip.720pStudentka.1988.MVO.rus.Союз-Видео.dts
Формат : DTS
Формат/Информация : Digital Theater Systems
Размер файла : 1,10 Гбайт
Продолжительность : 1 ч. 43 м.
Режим общего битрейта : Постоянный
Общий поток : 1509 Кбит/сек

Аудио
Формат : DTS
Формат/Информация : Digital Theater Systems
Режим : 16
Параметр Endianness формата : Big
Продолжительность : 1 ч. 43 м.
Вид битрейта : Постоянный
Битрейт : 1509 Кбит/сек
Каналы : 2 канала
Расположение каналов : Front: L R
Частота : 48,0 КГц
Битовая глубина : 16 бит
Метод сжатия : С потерями
Размер потока : 1,10 Гбайт

Общее
Полное имя : D:VideoStudentka.1988.BDRip.720pStudentka.1988.Original.fre.ac3
Формат : AC-3
Формат/Информация : Audio Coding 3
Размер файла : 143 Мбайт
Продолжительность : 1 ч. 43 м.
Режим общего битрейта : Постоянный
Общий поток : 192 Кбит/сек

Аудио
Формат : AC-3
Формат/Информация : Audio Coding 3
Расширение режима : CM (complete main)
Параметр Endianness формата : Big
Продолжительность : 1 ч. 43 м.
Вид битрейта : Постоянный
Битрейт : 192 Кбит/сек
Каналы : 2 канала
Расположение каналов : Front: L R
Частота : 48,0 КГц
Битовая глубина : 16 бит
Метод сжатия : С потерями
Размер потока : 143 Мбайт (100%)





_________________
Проголосуй за трекер Открытый торрент трекер - RUS-MEDIA.ORG

Проголосуй Открытый торрент трекер - RUS-MEDIA.ORG



реклама партнёра


Вернуться к началу
 Профиль Отправить личное сообщение  
 
   Похожие торренты   Автор   Торрент   Размер 
В этой теме нет новых непрочитанных сообщений. Студентка / L' Etudiante [мелодрама, комедия, 1988] BDRip 1080p, Dub+2mvo+Avo+Sub

salma3

2 | 5

16.88 ГБ

В этой теме нет новых непрочитанных сообщений. Адвокат для убийцы / Criminal Law [триллер, криминал. 1988] BDRip 720p, 2Mvo+Dvo+Sub

salma3

16 | 3

8.57 ГБ

В этой теме нет новых непрочитанных сообщений. Большие гонки / The Great Race [Мелодрама,Комедия,Приключения, 1965] BDRip 720p, Dub+2Mvo+Sub

salma3

1 | 3

7.18 ГБ

В этой теме нет новых непрочитанных сообщений. Сломанные цветы / Broken Flowers [драма, мелодрама, комедия, 2005] BDRip 720p, 2Mvo+Sub

salma3

8 | 17

6.32 ГБ

В этой теме нет новых непрочитанных сообщений. Я люблю неприятности / I Love Trouble [Боевик, мелодрама, комедия, 1994] BDRip 720p, Dub+2Mvo+Dvo+3Avo+Sub

salma3

17 | 4

7.37 ГБ

В этой теме нет новых непрочитанных сообщений. История вечной любви / Ever After: A Cinderella Story [драма, мелодрама, комедия, 1998] BDRip 720p, 2Mvo+Sub

salma3

14 | 6

4.61 ГБ

В этой теме нет новых непрочитанных сообщений. Драконы навсегда / Dragons Forever / Fei lung mang jeung [комедия, боевые искусства, 1988] BDRip 1080p, 2Mvo+2Avo

salma3

17 | 7

9.1 ГБ


Начать новую тему Ответить на тему  [ 1 сообщение ] 




Для Мосгорсуда, Роскомнадзора и рекламодателей:: mosgorsud-torrent[собачка]yandex.ru