Торрент файл
скачать торрент магнет ссылка Добавлен: 14 фев 2015, 17:02
Размер: 3.1 ГБ
Сидеров: 62
Личеров: 2
Автор

СообщениеДобавлено: 14 фев 2015, 17:02 

Не в сети
Супермодератор
Аватара пользователя
Дата регистрации:
15 фев 2012, 16:44
Возраст: 28
Спасибо: 6642 / 2146
Сообщения: 45664
Информация о фильме
Название: Киборг 2: Стеклянная тень
Оригинальное название: Cyborg 2: Glass Shadow
Год выхода: 1993
Жанр: фантастика, боевик, триллер, киберпанк
Режиссер: Майкл Шродер
В ролях: Элиас Котеас — Колсон «Кольт» Рикс, Анджелина Джоли — Казелла «Каш» Риз, Аллен Гарфилд — Мартин Данн, Билли Драго — Дэнни Бенч, Джек Пэлэнс — Мэрси, Рик Янг — Бобби Лин, Трэйси Уолтер — Вилд Кард, Карен Шеперд — Шэн, Рене Гриффин — Дрена.

О фильме:
В 2074 году Земля охвачена борьбой крупнейших корпораций. Кобайяши Электроникс (Япония) и Пинуил Роботикс (США) сражаются за контролем над индустрией производства программного обеспечения и производства киборгов. Киборги заменили людей во всех отношениях: от солдата на поле боя до проститутки в борделе. На карту поставлены миллиарды долларов.

В американской корпорации создан киборг в виде красивой женщины, в тело которой была введена мощнейшая жидкая взрывчатка. Эта «киборгша» должна была пойти на переговоры с руководством японской корпорации и там взорваться. После этого акции бы упали, и конкурент был бы устранен. Все, наверное, так и произошло бы, но красоткой увлекся ее учитель каратэ. Когда она узнала, что обречена на смерть своими творцами, он пришел ей на помощь и началась погоня…


Страна: США
Студия: Trimark Pictures, Stargate Films Inc.
Продолжительность: 01:39:20
Перевод: Профессиональный многоголосый

Файл
Качество: WEB-DL 720p
Видео: 1280x542 (2,35:1), 23.976 fps, MPEG-4 AVC, 3988 Kbps
Звук:
Аудио #1: AC3, 384 Kbps, 48.0 KHz, 6 ch (Rus) Многоголосый закадровый
Субтитры: Английские



Формат : Matroska
Версия формата : Version 2
Размер файла : 3,10 Гбайт
Продолжительность : 1 ч. 39 м.
Общий поток : 4461 Кбит/сек
Дата кодирования : UTC 2015-02-14 08:32:15
Программа кодирования : mkvmerge v5.4.0 ('Piper') built on Mar 10 2012 13:34:39
Библиотека кодирования : libebml v1.2.3 + libmatroska v1.3.0

Видео
Идентификатор : 1
Формат : AVC
Формат/Информация : Advanced Video Codec
Профиль формата : Main@L3.1
Параметр CABAC формата : Нет
Параметр ReFrames формата : 2 кадра
Идентификатор кодека : V_MPEG4/ISO/AVC
Продолжительность : 1 ч. 39 м.
Битрейт : 3988 Кбит/сек
Ширина : 1280 пикселей
Высота : 542 пикселя
Соотношение сторон : 2,35:1
Режим частоты кадров : Постоянный
Частота кадров : 23,976 кадра/сек
Цветовое пространство : YUV
Субдискретизация насыщенности : 4:2:0
Битовая глубина : 8 бит
Тип развёртки : Прогрессивная
Бит/(Пиксели*Кадры) : 0.240
Размер потока : 2,77 Гбайт (89%)
Заголовок : Cyborg 2: Glass Shadow / Киборг 2: Стеклянная тень (1993)
Язык : English
Default : Да
Forced : Нет
Основные цвета : BT.709
Характеристики трансфера : BT.709
Коэффициенты матрицы : BT.709

Аудио
Идентификатор : 2
Формат : AC-3
Формат/Информация : Audio Coding 3
Расширение режима : CM (complete main)
Параметр Endianness формата : Big
Идентификатор кодека : A_AC3
Продолжительность : 1 ч. 39 м.
Вид битрейта : Постоянный
Битрейт : 384 Кбит/сек
Каналы : 6 каналов
Расположение каналов : Front: L C R, Side: L R, LFE
Частота : 48,0 КГц
Битовая глубина : 16 бит
Метод сжатия : С потерями
Задержка видео : 12 мс.
Размер потока : 273 Мбайт (9%)
Заголовок : MVO (Russian)
Язык : Russian
Default : Да
Forced : Нет

Текст
Идентификатор : 3
Формат : UTF-8
Идентификатор кодека : S_TEXT/UTF8
Идентификатор кодека/Информация : UTF-8 Plain Text
Заголовок : Eng
Язык : English
Default : Нет
Forced : Нет

Меню
00:00:00.000 : en:Chapter 1
00:05:05.000 : en:Chapter 2
00:13:57.000 : en:Chapter 3
00:22:53.000 : en:Chapter 4
00:31:59.000 : en:Chapter 5
00:42:12.000 : en:Chapter 6
00:52:58.000 : en:Chapter 7
01:01:37.000 : en:Chapter 8
01:11:47.000 : en:Chapter 9
01:19:41.000 : en:Chapter 10
01:28:23.000 : en:Chapter 11
01:35:32.000 : en:Chapter 12



Релиз от: CITROMON1980 (kinozal.tv)


_________________
Проголосуй за трекер Открытый торрент трекер - RUS-MEDIA.ORG

Проголосуй Открытый торрент трекер - RUS-MEDIA.ORG



реклама партнёра


Вернуться к началу
 Профиль Отправить личное сообщение  
 
   Похожие торренты   Автор   Торрент   Размер 
В этой теме нет новых непрочитанных сообщений. Киборг X / Cyborg X [ужасы, боевик, 2016] WEBDLRip, Mvo

salma3

509 | 31

1.39 ГБ

В этой теме нет новых непрочитанных сообщений. Киборг / Cyborg [фантастика, боевик, 1989] BDRip, Dvo

salma3

66 | 18

1.45 ГБ

В этой теме нет новых непрочитанных сообщений. Киборг / Cyborg [Фантастика, боевик, 1989] BDRemux 1080p, Mvo

salma3

1 | 0

21.6 ГБ

В этой теме нет новых непрочитанных сообщений. Тень / The Shadow Effect [боевик, триллер, 2017] WEB-DLRip, Mvo

salma3

1684 | 567

1.37 ГБ

В этой теме нет новых непрочитанных сообщений. Тень внутри / The Shadow Within [ужасы, триллер, 2007] DVDRip, Avo

salma3

75 | 43

1.46 ГБ

В этой теме нет новых непрочитанных сообщений. Тень волка / Shadow of the Wolf [Приключения, 1992] HDTV 1080i, Dvo [НТВ+]

salma3

10 | 1

4.67 ГБ

В этой теме нет новых непрочитанных сообщений. Тень / The Shadow [Фэнтези, боевик, триллер, 1994] BDRip 1080р, Mvo

salma3

168 | 46

11.64 ГБ


Начать новую тему Ответить на тему  [ 1 сообщение ] 




Для Мосгорсуда, Роскомнадзора и рекламодателей:: mosgorsud-torrent[собачка]yandex.ru