Торрент файл
скачать торрент магнет ссылка Добавлен: 07 фев 2015, 20:39
Размер: 3.46 ГБ
Сидеров: 4
Личеров: 4
Автор

СообщениеДобавлено: 07 фев 2015, 20:39 

Не в сети
Зам. Админа
Аватара пользователя
Дата регистрации:
02 дек 2010, 12:39
Спасибо: 12623 / 214
Сообщения: 28012
Год выхода: 2015
Жанр: мелодрама, комедия
Режиссер: Кристиан Диттер
В ролях: Сэм Клафлин, Лили Коллинз, Сьюки Уотерхаус, Тэмзин Эджертон, Арт Паркинсон, Кристиан Кук, Джэми Уинстон, Лили Лэйт, Ник Ли, Джейк Мэнли

О фильме:
Рози и Алекс были лучшими друзьями с детства, и теперь, по окончании школы, собираются вместе продолжить учебу в университете.
Однако в их судьбах происходит резкий поворот, когда после ночи со звездой школы Рози узнает, что у нее будет ребенок. Невзирая на то, что обстоятельства и жизненные ситуации разлучают героев, они и спустя годы продолжают помнить друг о друге и о том чувстве, что соединило их в юности…

Качество: WEB-DLRip[720p]
Видео: AVC, 3954 kb/s, 1280x542, 23.976 fps
Аудио: AC3, 384 kb/s, 2 ch, 48.0 KHz [Русский]
Аудио: AC3, 384 kb/s, 6 ch, 48.0 KHz [Английский]
Продолжительность: 01:42:42
Перевод: Дублированный [звук с TS]
Субтитры: Английские

Love.Rosie.2014.D.WEB-DL.720p.mkv
Format                      : Matroska
Format version              : Version 2
File size                   : 3.46 GiB
Duration                    : 1h 42mn
Overall bit rate            : 4 818 Kbps
Movie name                  : Love.Rosie.2014.D.WEB-DL.720p.ELEKTRI4KA [3imeMachi9e]
Encoded date                : UTC 2015-02-07 08:43:14
Writing application         : mkvmerge v5.0.1 ('Es ist Sommer') built on Nov  6 2011 16:23:40
Writing library             : libebml v1.2.2 + libmatroska v1.3.0
DURATION                    : 01:35:27.721000000
NUMBER_OF_FRAMES            : 1247
NUMBER_OF_BYTES             : 52213
_STATISTICS_WRITING_APP     : mkvmerge v7.0.0 ('Where We Going') 64bit built on Jun  9 2014 15:16:27
_STATISTICS_WRITING_DATE_UT : 2015-02-06 05:43:42
_STATISTICS_TAGS            : BPS DURATION NUMBER_OF_FRAMES NUMBER_OF_BYTES

Video
ID                          : 1
Format                      : AVC
Format/Info                 : Advanced Video Codec
Format profile              : Main@L3.1
Format settings, CABAC      : No
Format settings, ReFrames   : 2 frames
Codec ID                    : V_MPEG4/ISO/AVC
Duration                    : 1h 42mn
Bit rate                    : 3 954 Kbps
Width                       : 1 280 pixels
Height                      : 542 pixels
Display aspect ratio        : 2.35:1
Frame rate mode             : Constant
Frame rate                  : 23.976 fps
Color space                 : YUV
Chroma subsampling          : 4:2:0
Bit depth                   : 8 bits
Scan type                   : Progressive
Bits/(Pixel*Frame)          : 0.238
Stream size                 : 2.84 GiB (82%)
Title                       : Love.Rosie.2014.D.WEB-DL.720p.ELEKTRI4KA [3imeMachi9e]
Language                    : English
Default                     : Yes
Forced                      : No
Color primaries             : BT.709
Transfer characteristics    : BT.709
Matrix coefficients         : BT.709
Color range                 : Limited

Audio #1
ID                          : 2
Format                      : AC-3
Format/Info                 : Audio Coding 3
Mode extension              : CM (complete main)
Format settings, Endianness : Big
Codec ID                    : A_AC3
Duration                    : 1h 42mn
Bit rate mode               : Constant
Bit rate                    : 384 Kbps
Channel(s)                  : 2 channels
Channel positions           : Front: L R
Sampling rate               : 48.0 KHz
Bit depth                   : 16 bits
Compression mode            : Lossy
Stream size                 : 282 MiB (8%)
Title                       : Love.Rosie.2014.D.WEB-DL.720p.ELEKTRI4KA [KiNOParK]
Language                    : Russian
Default                     : Yes
Forced                      : No

Audio #2
ID                          : 3
Format                      : AC-3
Format/Info                 : Audio Coding 3
Mode extension              : CM (complete main)
Format settings, Endianness : Big
Codec ID                    : A_AC3
Duration                    : 1h 42mn
Bit rate mode               : Constant
Bit rate                    : 384 Kbps
Channel(s)                  : 6 channels
Channel positions           : Front: L C R, Side: L R, LFE
Sampling rate               : 48.0 KHz
Bit depth                   : 16 bits
Compression mode            : Lossy
Stream size                 : 282 MiB (8%)
Title                       : Love.Rosie.2014.D.WEB-DL.720p.ELEKTRI4KA
Language                    : English
Default                     : No
Forced                      : No

Text
ID                          : 4
Format                      : UTF-8
Codec ID                    : S_TEXT/UTF8
Codec ID/Info               : UTF-8 Plain Text
Title                       : Love.Rosie.2014.D.WEB-DL.720p.ELEKTRI4KA
Language                    : English
Default                     : No
Forced                      : No

Menu
00:00:00.000                : en:1
00:08:13.000                : en:2
00:15:40.000                : en:3
00:23:43.000                : en:4
00:33:15.000                : en:5
00:41:09.000                : en:6
00:48:34.000                : en:7
00:55:48.000                : en:8
01:04:03.000                : en:9
01:12:24.000                : en:10
01:20:13.000                : en:11
01:30:15.000                : en:12
01:38:14.000                : en:13








реклама партнёра


Вернуться к началу
 Профиль  
 
   Похожие торренты   Автор   Торрент   Размер 
В этой теме нет новых непрочитанных сообщений. С любовью, Рози / Love, Rosie (Кристиан Диттер) [мелодрама, комедия, 2015] WEB-DLRip, dub [звук TS]

Dracon

4 | 5

1.46 ГБ

В этой теме нет новых непрочитанных сообщений. С любовью, Рози / Love, Rosie (Кристиан Диттер) [мелодрама, комедия, 2015] BDRip 720p, dub [Чистый звук]

Dracon

134 | 89

4.65 ГБ

В этой теме нет новых непрочитанных сообщений. С любовью, Рози / Love, Rosie С любовью, Рози / Love, Rosie (Кристиан Диттер) [мелодрама, комедия, 2015] HDRip, avo

Dracon

4 | 2

1.37 ГБ

В этой теме нет новых непрочитанных сообщений. С любовью, Рози / Love, Rosie (Кристиан Диттер) [мелодрама, комедия, 2015] HDRip, dub [Чистый звук]

Dracon

7340 | 221

1.37 ГБ

В этой теме нет новых непрочитанных сообщений. Всё о Рози / Everything's Rosie [s03x01-23,25-26 из 26] [Мультсериал, детский, приключения, 2012-2013] WEB-DLRip 1080p, Dub

salma3

1 | 0

5.93 ГБ

В этой теме нет новых непрочитанных сообщений. Сидр и Рози / Cider with Rosie (Филиппа Лоуторп / Philippa Lowthorpe) [2015г., Великобритания, мелодрама, экранизация, HDTVRip] Sub

Alfredovich

23 | 7

956.54 МБ

В этой теме нет новых непрочитанных сообщений. Как заниматься любовью по-английски / How to Make Love Like an Englishman (Том Вон) [Мелодрама, комедия, 2014] WEB-DL 720p, Dub

Dracon

38 | 1

3.2 ГБ


Начать новую тему Ответить на тему  [ 1 сообщение ] 




Для Мосгорсуда, Роскомнадзора и рекламодателей:: mosgorsud-torrent[собачка]yandex.ru