Торрент файл
скачать торрент магнет ссылка Добавлен: 07 фев 2015, 17:57
Размер: 5.56 ГБ
Сидеров: 18
Личеров: 2
Автор

СообщениеДобавлено: 07 фев 2015, 17:57 

Не в сети
Супермодератор
Аватара пользователя
Дата регистрации:
15 фев 2012, 16:44
Возраст: 28
Спасибо: 6644 / 2146
Сообщения: 46014
Год выпуска: 1995
Страна: Франция, Италия, Германия
Жанр: драма
Продолжительность: 01:46:35
Перевод: профессиональный многоголосый
Субтитры: русские

Режиссёр: Клод Соте

В ролях: Эммануэль Беар, Мишель Серро, Жан-Юг Англад, Клер Надо, Франсуаза Брион, Мишель Ларок, Микаэль Лонсдаль, Шарль Берлинг, Жан-Пьер Лори, Мишель Альбертини, Кароли Заонеро, Грациэлла Делерм, Оливье Пажо, Александр Шапюи, Карин Фовио, Лор Шамэ, Сильви Жобер, Жанин Сушон, Жудит Витте, Матильда Витри, Анжелен, Тьери Экендорн, Абель Джефри, Филипп Лельевр, Сюзи Маркиз

Описание: Нелли 25 лет, и она собирается разводиться. Её жизнь нестабильна. Как раз в это время она знакомится с Пьером Арно, мужчиной старше на 40 лет, скромным и элегантным, которому, кажется, всё наскучило. Он предлагает ей деньги, работу и помощь, и всё это вполне благопристойно. Их скрытое сообщничество, полное двусмысленностей, порождает у Арно чувство, которое ему трудно преодолеть. Он предлагает Нелли свою мудрость и опыт, которые обещают девушке хорошее будущее...



Качество: BDRip 720p
Формат: MKV
Видео кодек: H.264
Видео: 6936 Кбит/с, 1196x720, 24 кадра/с, 0.336 bpp
Аудио 1: русский, AC3, 192 kbps, 2 ch, 48 kHz [профессиональный многоголосый]
Аудио 2: французский, AC3, 192 kbps, 2 ch, 48 kHz [оригинал]

Имеются неименованные главы/чаптеры.

приз Луи Деллюка, премия Французского синдиката критиков, «Давид» Донателло» за лучший иностранный фильм в Италии.

Британская академия, 1997 год
Номинации (1):
Лучший фильм на иностранном языке

Сезар, 1996 год
Победитель (2):
Лучший актер (Мишель Серро)
Лучший режиссер (Клод Соте)

Номинации (9):
Лучший фильм
Лучшая актриса (Эммануэль Беар)
Лучший актер второго плана (Жан-Юг Англад)
Лучший актер второго плана (Микаэль Лонсдаль)
Лучшая актриса второго плана (Клер Надо)
Лучший адаптированный или оригинальный сценарий
Лучший звук
Лучший монтаж
Лучший саундтрек
Общее
Уникальный идентификатор : 216804514705208289872771019531273599105 (0xA31B07DB9F2416E7BBDC308A73B37881)
Полное имя : D:VideoNelli i mesje Arno.1995.BDRip.720p.mkv
Формат : Matroska
Версия формата : Version 4 / Version 2
Размер файла : 5,56 Гбайт
Продолжительность : 1 ч. 46 м.
Общий поток : 7469 Кбит/сек
Дата кодирования : UTC 2015-02-07 08:55:47
Программа кодирования : mkvmerge v7.5.0 ('Glass Culture') 64bit built on Jan 4 2015 16:48:44
Библиотека кодирования : libebml v1.3.1 + libmatroska v1.4.2
DURATION : 01:43:25.165000000
NUMBER_OF_FRAMES : 1220
NUMBER_OF_BYTES : 66102
_STATISTICS_WRITING_APP : mkvmerge v7.5.0 ('Glass Culture') 64bit built on Jan 4 2015 16:48:44
_STATISTICS_WRITING_DATE_UTC : 2015-02-07 08:55:47
_STATISTICS_TAGS : BPS DURATION NUMBER_OF_FRAMES NUMBER_OF_BYTES

Видео
Идентификатор : 1
Формат : AVC
Формат/Информация : Advanced Video Codec
Профиль формата : High@L4.1
Параметр CABAC формата : Да
Параметр ReFrames формата : 9 кадров
Идентификатор кодека : V_MPEG4/ISO/AVC
Продолжительность : 1 ч. 46 м.
Битрейт : 6936 Кбит/сек
Ширина : 1196 пикселей
Высота : 720 пикселей
Соотношение сторон : 1,661
Режим частоты кадров : Постоянный
Частота кадров : 24,000 кадра/сек
Цветовое пространство : YUV
Субдискретизация насыщенности : 4:2:0
Битовая глубина : 8 бит
Тип развёртки : Прогрессивная
Бит/(Пиксели*Кадры) : 0.336
Размер потока : 5,16 Гбайт (93%)
Заголовок : BDRip -- STarankov
Библиотека кодирования : x264 core 142 r2431 ac76440
Настройки программы : cabac=1 / ref=9 / deblock=1:-1:-1 / analyse=0x3:0x113 / me=umh / subme=10 / psy=1 / psy_rd=1.00:0.15 / mixed_ref=1 / me_range=32 / chroma_me=1 / trellis=2 / 8x8dct=1 / cqm=0 / deadzone=21,11 / fast_pskip=1 / chroma_qp_offset=-3 / threads=6 / lookahead_threads=1 / sliced_threads=0 / nr=0 / decimate=1 / interlaced=0 / bluray_compat=0 / constrained_intra=0 / bframes=8 / b_pyramid=2 / b_adapt=2 / b_bias=0 / direct=3 / weightb=1 / open_gop=0 / weightp=2 / keyint=230 / keyint_min=23 / scenecut=40 / intra_refresh=0 / rc_lookahead=40 / rc=crf / mbtree=0 / crf=19.3 / qcomp=0.60 / qpmin=0 / qpmax=69 / qpstep=4 / vbv_maxrate=40000 / vbv_bufsize=50000 / crf_max=0.0 / nal_hrd=none / filler=0 / ip_ratio=1.40 / pb_ratio=1.30 / aq=1:1.00
Язык : French
Default : Да
Forced : Нет
DURATION : 01:46:35.000000000
NUMBER_OF_FRAMES : 153480
NUMBER_OF_BYTES : 5661753986
_STATISTICS_WRITING_APP : mkvmerge v7.5.0 ('Glass Culture') 64bit built on Jan 4 2015 16:48:44
_STATISTICS_WRITING_DATE_UTC : 2015-02-07 08:55:47
_STATISTICS_TAGS : BPS DURATION NUMBER_OF_FRAMES NUMBER_OF_BYTES

Аудио #1
Идентификатор : 2
Формат : AC-3
Формат/Информация : Audio Coding 3
Расширение режима : CM (complete main)
Параметр Endianness формата : Big
Идентификатор кодека : A_AC3
Продолжительность : 1 ч. 46 м.
Вид битрейта : Постоянный
Битрейт : 192 Кбит/сек
Каналы : 2 канала
Расположение каналов : Front: L R
Частота : 48,0 КГц
Битовая глубина : 16 бит
Метод сжатия : С потерями
Размер потока : 146 Мбайт (3%)
Заголовок : MVO
Язык : Russian
Default : Да
Forced : Нет

Аудио #2
Идентификатор : 3
Формат : AC-3
Формат/Информация : Audio Coding 3
Расширение режима : CM (complete main)
Параметр Endianness формата : Big
Идентификатор кодека : A_AC3
Продолжительность : 1 ч. 46 м.
Вид битрейта : Постоянный
Битрейт : 192 Кбит/сек
Каналы : 2 канала
Расположение каналов : Front: L R
Частота : 48,0 КГц
Битовая глубина : 16 бит
Метод сжатия : С потерями
Размер потока : 146 Мбайт (3%)
Заголовок : Original
Язык : French
Default : Нет
Forced : Нет

Текст
Идентификатор : 4
Формат : UTF-8
Идентификатор кодека : S_TEXT/UTF8
Идентификатор кодека/Информация : UTF-8 Plain Text
Заголовок : русский
Язык : Russian
Default : Нет
Forced : Нет

Меню
00:00:00.000 : :Chapter 01
00:02:28.791 : :Chapter 02
00:05:49.916 : :Chapter 03
00:20:14.083 : :Chapter 04
00:27:10.708 : :Chapter 05
00:36:32.250 : :Chapter 06
00:50:27.333 : :Chapter 07
00:54:50.958 : :Chapter 08
01:13:42.291 : :Chapter 09
01:27:26.041 : :Chapter 10
01:39:05.332 : :Chapter 11
01:44:40.666 : :Chapter 12





_________________
Проголосуй за трекер Открытый торрент трекер - RUS-MEDIA.ORG

Проголосуй Открытый торрент трекер - RUS-MEDIA.ORG



реклама партнёра


Вернуться к началу
 Профиль Отправить личное сообщение  
 
   Похожие торренты   Автор   Торрент   Размер 
В этой теме нет новых непрочитанных сообщений. Нелли и месье Арно / Nelly & Monsieur Arnaud [драма, 1995] BDRip 1080p, Mvo+Sub

salma3

33 | 3

13.88 ГБ

В этой теме нет новых непрочитанных сообщений. Месье Папа / Monsieur Papa [комедия, мелодрама, 2011] BDRip 720p, Mvo+Avo+Sub

salma3

63 | 3

4.85 ГБ

В этой теме нет новых непрочитанных сообщений. Три воспоминания моей юности / Trois souvenirs de ma jeunesse (Арно Деплешен / Arnaud Desplechin) [2015г., Франция, драма, HDRip] Sub

Alfredovich

52 | 2

2.18 ГБ

В этой теме нет новых непрочитанных сообщений. Нелли / Nelly [драма, 2016] WEB-DLRip, Mvo

salma3

0 | 0

1.44 ГБ

В этой теме нет новых непрочитанных сообщений. Рисуй или занимайся любовью / Peindre ou faire l'amour (Арно Ларьё, Жан-Мари Ларьё / Arnaud Larrieu, Jean-Marie Larrieu) [2005г., Франция, драма, мелодрама, DVDRip] Sub

Alfredovich

24 | 3

700.04 МБ

В этой теме нет новых непрочитанных сообщений. Мсье Ир / Monsieur Hire (Патрис Леконт / Patrice Leconte)[1989г., Франция, триллер, драма, криминал, BDRip 720p] DVO

Alfredovich

68 | 2

2.33 ГБ

В этой теме нет новых непрочитанных сообщений. Детки / Kids [драма, 1995] BDRip 720p, Dvo

salma3

162 | 102

6.13 ГБ


Начать новую тему Ответить на тему  [ 1 сообщение ] 




Для Мосгорсуда, Роскомнадзора и рекламодателей:: mosgorsud-torrent[собачка]yandex.ru