Торрент файл
скачать торрент магнет ссылка Добавлен: 04 фев 2015, 10:53
Размер: 3.12 ГБ
Сидеров: 86
Личеров: 5
Автор

СообщениеДобавлено: 04 фев 2015, 10:53 

Не в сети
Зам. Админа
Аватара пользователя
Дата регистрации:
02 дек 2010, 12:39
Спасибо: 12625 / 214
Сообщения: 28010
Год выхода: 2015
Жанр: Боевик, триллер, драма, криминал
Режиссер: Саймон Уэст
В ролях: Джейсон Стэйтем, Майкл Ангарано, Майло Вентимилья, Доминик Гарсиа-Лоридо, Энн Хеч, София Вергара, Макс Казелла, Джейсон Александер, Хоуп Дэвис, Стэнли Туччи

О фильме:
Главный герой - бывший военный Ник Эскаланте - работает в Лас-Вегасе охранником, мечтает накопить денег и навсегда уехать в Венецию. Но Ник соглашается помочь проститутке Холли, постоянно подвергающейся насилию со стороны сына крупного гангстера, из-за чего отъезд в Венецию затягивается.

Качество: WEB-DLRip[720p]
Видео: V_MPEG4/ISO/AVC,1280x530, 23.976 fps, 3 971 Kbit/s
Аудио 1: AC3, 48000 Hz,6 каналов,384 kbit/s-Русский
Аудио 2: AC3, 48000 Hz,6 каналов,384 kbit/s-Английский
Продолжительность: 01:32:19
Перевод: Профессиональный (многоголосный) [Paradox ]
General
Unique ID                      : 175980989005347709254731613857702629845 (0x8464B4A49D7B25869DAA69AA0E7651D5)
Complete name                  : E:Фильмы 2Shalnaya.Karta.2015.P.WEB-DL.720p.mkv
Format                         : Matroska
Format version                 : Version 2
File size                      : 3.12 GiB
Duration                       : 1h 32mn
Overall bit rate               : 4 835 Kbps
Encoded date                   : UTC 2015-02-03 17:40:14
Writing application            : mkvmerge v7.5.0 ('Glass Culture') 64bit built on Jan  4 2015 16:48:44
Writing library                : libebml v1.3.1 + libmatroska v1.4.2
DURATION                       : 01:32:19.616000000
NUMBER_OF_FRAMES               : 173113
NUMBER_OF_BYTES                : 265901568
_STATISTICS_WRITING_APP        : mkvmerge v7.5.0 ('Glass Culture') 64bit built on Jan  4 2015 16:48:44
_STATISTICS_WRITING_DATE_UTC   : 2015-02-03 17:40:14
_STATISTICS_TAGS               : BPS DURATION NUMBER_OF_FRAMES NUMBER_OF_BYTES

Video
ID                             : 1
Format                         : AVC
Format/Info                    : Advanced Video Codec
Format profile                 : Main@L3.1
Format settings, CABAC         : No
Format settings, ReFrames      : 2 frames
Codec ID                       : V_MPEG4/ISO/AVC
Duration                       : 1h 32mn
Bit rate                       : 3 971 Kbps
Width                          : 1 280 pixels
Height                         : 530 pixels
Display aspect ratio           : 2.40:1
Frame rate mode                : Constant
Frame rate                     : 23.976 fps
Color space                    : YUV
Chroma subsampling             : 4:2:0
Bit depth                      : 8 bits
Scan type                      : Progressive
Bits/(Pixel*Frame)             : 0.244
Stream size                    : 2.56 GiB (82%)
Title                          : Wild.Card.2015.720p.WEB-DL.DD5.1.H264-RARBG
Language                       : English
Default                        : Yes
Forced                         : No
Color primaries                : BT.709
Transfer characteristics       : BT.709
Matrix coefficients            : BT.709

Audio #1
ID                             : 2
Format                         : AC-3
Format/Info                    : Audio Coding 3
Mode extension                 : CM (complete main)
Format settings, Endianness    : Big
Codec ID                       : A_AC3
Duration                       : 1h 32mn
Bit rate mode                  : Constant
Bit rate                       : 384 Kbps
Channel(s)                     : 2 channels
Channel positions              : Front: L R
Sampling rate                  : 48.0 KHz
Bit depth                      : 16 bits
Compression mode               : Lossy
Stream size                    : 254 MiB (8%)
Title                          : Paradox
Language                       : Russian
Default                        : Yes
Forced                         : No

Audio #2
ID                             : 3
Format                         : AC-3
Format/Info                    : Audio Coding 3
Mode extension                 : CM (complete main)
Format settings, Endianness    : Big
Codec ID                       : A_AC3
Duration                       : 1h 32mn
Bit rate mode                  : Constant
Bit rate                       : 384 Kbps
Channel(s)                     : 6 channels
Channel positions              : Front: L C R, Side: L R, LFE
Sampling rate                  : 48.0 KHz
Bit depth                      : 16 bits
Compression mode               : Lossy
Stream size                    : 254 MiB (8%)
Language                       : English
Default                        : No
Forced                         : No

Text
ID                             : 4
Format                         : UTF-8
Codec ID                       : S_TEXT/UTF8
Codec ID/Info                  : UTF-8 Plain Text
Language                       : English
Default                        : No
Forced                         : No

Menu
00:00:00.000                   : en:Chapter 1
00:08:10.000                   : en:Chapter 2
00:18:00.000                   : en:Chapter 3
00:27:53.000                   : en:Chapter 4
00:34:14.000                   : en:Chapter 5
00:45:04.000                   : en:Chapter 6
00:52:54.000                   : en:Chapter 7
01:00:53.000                   : en:Chapter 8
01:08:22.000                   : en:Chapter 9
01:17:20.000                   : en:Chapter 10
01:25:46.000                   : en:Chapter 11









реклама партнёра


Вернуться к началу
 Профиль  
 
   Похожие торренты   Автор   Торрент   Размер 
В этой теме нет новых непрочитанных сообщений. Шальная карта / Wild Card (Саймон Уэст) [боевик, триллер, драма, криминал, 2015] WEB-DLRip 720p, dvo

Dracon

13 | 3

2.99 ГБ

В этой теме нет новых непрочитанных сообщений. Шальная карта / Wild Card (Саймон Уэст) [боевик, триллер, драма, криминал, 2015] WEB-DLRip, Mvo

Dracon

3 | 2

699.41 МБ

В этой теме нет новых непрочитанных сообщений. Шальная карта / Wild Card (Саймон Уэст) [боевик, триллер, драма, криминал, 2015] WEB-DLRip, dvo

Dracon

35 | 2

1.37 ГБ

В этой теме нет новых непрочитанных сообщений. Шальная карта / Wild Card (Саймон Уэст) [2015, боевик, триллер, драма, криминал, WEB-DLRip] dvo

Nickolas3435

350 | 12

744.93 МБ

В этой теме нет новых непрочитанных сообщений. Шальная карта / Wild Card (Саймон Уэст) [боевик, триллер, драма, криминал, 2015] WEB-DLRip, Mvo

Dracon

30 | 4

1.37 ГБ

В этой теме нет новых непрочитанных сообщений. Шальная карта / Wild Card (Саймон Уэст) [боевик, триллер, драма, криминал, 2015] BDRip 720p, Mvo+Avo+Sub

Dracon

277 | 9

4.25 ГБ

В этой теме нет новых непрочитанных сообщений. Шальная карта / Wild Card (Саймон Уэст) [боевик, триллер, драма, криминал, 2015] BDRip 1080p, Mvo+Avo+Sub

Dracon

223 | 20

9.9 ГБ


Начать новую тему Ответить на тему  [ 1 сообщение ] 




Для Мосгорсуда, Роскомнадзора и рекламодателей:: mosgorsud-torrent[собачка]yandex.ru