Торрент файл
скачать торрент магнет ссылка Добавлен: 30 янв 2015, 13:27
Размер: 5.55 ГБ
Сидеров: 11
Личеров: 3
Автор

СообщениеДобавлено: 30 янв 2015, 13:27 

Не в сети
Супермодератор
Аватара пользователя
Дата регистрации:
15 фев 2012, 16:44
Возраст: 29
Спасибо: 7379 / 2147
Сообщения: 76077
Год выпуска: 2004
Жанр: Драма, экранизация
Режиссер: Грегг Араки
В ролях: Джозеф Гордон-Левитт, Брэйди Корбет, Мишель Трахтенберг, Лиза Лонг, Крис Малки, Элизабет Шу, Дэвид Ли Смит, Билл Сейдж, Райли МакГуайр, Райан Стензел, Чейз Эллисон, Ричард Риле, Рэйчел Настасия Крафт, Джордж Уэбстер, Ларри Марко, Мэри Линн Райскаб, Джеффри Ликон, Бруно Александр, Форрест Фаунтин, Зейн Хуэтт, Риди Гиббс, Дэвид Алан Граф, Джон Гэнан, Билли Драго, Келли Крюгер, Пит Каспер, Джоан М. Блэр, Триесте Келли Данн

О фильме:Экранизация одноимённого романа Скотта Хейма. Когда Брайану Лаки было восемь, у него появились признаки психического расстройства. Провалы в памяти, страх темноты. Началось с того, что однажды в дождливый вечер он очнулся в гараже возле дома, не имея представления, как туда попал. Из носа шла кровь. Брайану исполнилось 18. Болезнь стала неврозом. К детской симптоматике прибавилась стеснительность и ужас перед противоположным полом. А парень так и не знает, что произошло. Тем не менее, личность Брайана еще цела. Докатиться до невротического баланса герою не дает странный сон. Ему снится мальчик, с которым он вроде бы не знаком. Этот мальчик существует. Его зовут Нил Мак-Кормик...



Страна: США, Нидерланды
Студия: Antidote Films, Desperate Pictures, Fortissimo Film Sales
Продолжительность: 01:45:07
Перевод: Профессиональный многоголосый

Файл
Кодек: x264
Качество: BDRip 720p
Видео: MPEG-4 AVC, 6772 Кбит/с, 1280x720, 23.976 кадр/с
Аудио #1: Русский (AC3, 2 ch, 192 Кбит/с) / Профессиональный многоголосый
Аудио #2: Английский (AC3, 6 ch, 448 Кбит/с)
Субтитры: Русские (Stewie), английские

Семпл

Видеоряд от SbR (от 22.03.2014г.)
SOURCE.....: Mysterious Skin 2004 1080p Blu-ray AVC DTS-HD MA 5.1-PCH
ENCODER...: Lesnick

Работа с аудио и субтитрами elcinboris
x264 [info]: frame I:1021 Avg QP:13.73 size: 98614
x264 [info]: frame P:26607 Avg QP:14.41 size: 53081
x264 [info]: frame B:123594 Avg QP:15.61 size: 31899

======================================================

Format : Matroska
Format version : Version 2
File size : 5.55 GiB
Duration : 1h 45mn
Overall bit rate : 7 562 Kbps
Encoded date : UTC 2015-01-29 14:21:58
Writing application : mkvmerge v5.5.0 ('Healer') built on Apr 6 2012 21:43:24
Writing library : libebml v1.2.3 + libmatroska v1.3.0

Video
ID : 1
Format : AVC
Format/Info : Advanced Video Codec
Format profile : High@L4.1
Format settings, CABAC : Yes
Format settings, ReFrames : 9 frames
Codec ID : V_MPEG4/ISO/AVC
Duration : 1h 45mn
Bit rate : 6 772 Kbps
Width : 1 280 pixels
Height : 720 pixels
Display aspect ratio : 16:9
Frame rate mode : Constant
Frame rate : 23.976 fps
Color space : YUV
Chroma subsampling : 4:2:0
Bit depth : 8 bits
Scan type : Progressive
Bits/(Pixel*Frame) : 0.306
Stream size : 4.97 GiB (90%)
Title : Mysterious Skin (2004)
Writing library : x264 core 142 r2409+42 04be48a tMod [8-bit@all X86_64]
Encoding settings : cabac=1 / ref=9 / deblock=1:-2:-2 / analyse=0x3:0x133 / me=umh / subme=11 / psy=1 / fade_compensate=0.00 / psy_rd=1.00:0.00 / mixed_ref=1 / me_range=48 / chroma_me=1 / trellis=2 / 8x8dct=1 / cqm=0 / deadzone=21,11 / fast_pskip=0 / chroma_qp_offset=-2 / threads=12 / lookahead_threads=3 / sliced_threads=0 / nr=0 / decimate=0 / interlaced=0 / bluray_compat=0 / constrained_intra=0 / fgo=0 / bframes=16 / b_pyramid=2 / b_adapt=2 / b_bias=0 / direct=3 / weightb=1 / open_gop=0 / weightp=2 / keyint=250 / keyint_min=23 / scenecut=40 / intra_refresh=0 / rc=crf / mbtree=0 / crf=17.1000 / qcomp=0.70 / qpmin=0:0:0 / qpmax=69:69:69 / qpstep=4 / ip_ratio=1.30 / pb_ratio=1.20 / aq=1:0.85 / aq-sensitivity=10.00 / aq-factor=1.00:1.00:1.00 / aq2=1:0.50 / aq2-sensitivity=15.00 / aq2-factor=1.00:1.00:1.00 / aq3=0
Language : English
Default : Yes
Forced : No

Audio #1
ID : 2
Format : AC-3
Format/Info : Audio Coding 3
Mode extension : CM (complete main)
Format settings, Endianness : Big
Codec ID : A_AC3
Duration : 1h 45mn
Bit rate mode : Constant
Bit rate : 192 Kbps
Channel count : 2 channels
Channel positions : Front: L R
Sampling rate : 48.0 KHz
Bit depth : 16 bits
Compression mode : Lossy
Stream size : 144 MiB (3%)
Title : Russian
Language : Russian
Default : Yes
Forced : No

Audio #2
ID : 3
Format : AC-3
Format/Info : Audio Coding 3
Mode extension : CM (complete main)
Format settings, Endianness : Big
Codec ID : A_AC3
Duration : 1h 45mn
Bit rate mode : Constant
Bit rate : 448 Kbps
Channel count : 6 channels
Channel positions : Front: L C R, Side: L R, LFE
Sampling rate : 48.0 KHz
Bit depth : 16 bits
Compression mode : Lossy
Stream size : 337 MiB (6%)
Title : English
Language : English
Default : No
Forced : No

Text #1
ID : 4
Format : UTF-8
Codec ID : S_TEXT/UTF8
Codec ID/Info : UTF-8 Plain Text
Title : Russian
Language : Russian
Default : No
Forced : No

Text #2
ID : 5
Format : UTF-8
Codec ID : S_TEXT/UTF8
Codec ID/Info : UTF-8 Plain Text
Title : English BluRay
Language : English
Default : No
Forced : No

Text #3
ID : 6
Format : UTF-8
Codec ID : S_TEXT/UTF8
Codec ID/Info : UTF-8 Plain Text
Title : English DVD
Language : English
Default : No
Forced : No

Menu
00:00:00.000 : en:Credits
00:02:25.603 : en:Brian, Summer 1981
00:06:01.903 : en:Neil, Summer 1981
00:15:56.830 : en:October 1983
00:20:32.981 : en:November 1987
00:28:46.433 : en:Fail 1991
00:43:06.375 : en:Detective Work
00:57:41.124 : en:November, December 1991
01:12:05.529 : en:Birthday
01:18:33.458 : en:Brighton Beach
01:25:48.935 : en:Christmas Eve 1991
01:41:48.560 : en:End Credits



Релиз от:


_________________
Проголосуй за трекер Открытый торрент трекер - RUS-MEDIA.ORG

Проголосуй Открытый торрент трекер - RUS-MEDIA.ORG


Вернуться к началу
 Профиль Отправить личное сообщение  
 
   Похожие торренты   Автор   Торрент   Размер 
В этой теме нет новых непрочитанных сообщений. Загадочная кожа / Mysterious Skin [драма, 2004] BDRemux, Mvo

salma3

9 | 14

24.13 ГБ

В этой теме нет новых непрочитанных сообщений. Раскрашенная кожа / Painted Skin [боевые искусства, фэнтези, триллер, драма, боевик, 2008] HDRip, Avo

salma3

43 | 19

1.46 ГБ

В этой теме нет новых непрочитанных сообщений. Что скрывает кожа / Where the Skin Lies [ужасы, триллер, 2017] WEBDLRip, Mvo

salma3

67 | 25

1.37 ГБ

В этой теме нет новых непрочитанных сообщений. Дверь в полу / The Door In The Floor [Драма, экранизация, 2004] ВDRip 720p, Mvo

salma3

18 | 18

4.66 ГБ

В этой теме нет новых непрочитанных сообщений. Завет любви / Love's Enduring Promise [Драма, мелодрама, экранизация, 2004] WEB-DLRip 720p, Mvo

salma3

0 | 0

2.99 ГБ

В этой теме нет новых непрочитанных сообщений. Ничтожество / Insignificance [Комедия, драма, экранизация, 1985] BDRip 720p, Dvo

salma3

11 | 7

8.26 ГБ

В этой теме нет новых непрочитанных сообщений. Информаторы / The Informers [Триллер, драма, криминал, экранизация, 2008] BDRip 720p, Mvo+Sub

salma3

31 | 7

4.35 ГБ


Начать новую тему Ответить на тему  [ 1 сообщение ] 




Для Мосгорсуда, Роскомнадзора и рекламодателей:: mosgorsud-torrent[собачка]yandex.ru
cron