Торрент файл
скачать торрент магнет ссылка Добавлен: 30 янв 2015, 11:32
Размер: 3.53 ГБ
Сидеров: 6
Личеров: 3
Автор

СообщениеДобавлено: 30 янв 2015, 11:32 

Не в сети
Зам. Админа
Аватара пользователя
Дата регистрации:
02 дек 2010, 12:39
Спасибо: 12650 / 214
Сообщения: 28010
Год выхода: 2014
Жанр: Фэнтези, криминал, детектив
Режиссер: Пауль Магнус Лундё
В ролях: Лейф Нюгор, Ким Бодния, Йёрген Лангхелле, Андреас Вильсон, Сверре Анкер Оусдаль, Томас Аске Берг, Эвен Бремнер, Гер Юли Фьелль, Ларс Могенс Осе, Марианна Мэланн Фредбу, Эспен Хана, Ян Хокон Хансен, Эрик Хельгесен, Кристина Кнабен Хеннестад, Фредрик Финне Хальворсен

 О фильме: Норвегия, 1348 год. Свирепствует чума. Двое братьев, Вильхельм и Ансгар, переживают не лучшие времена. Обвиненный в колдовстве и сговоре с дьяволом, Ансгар вынужден скрываться. Повсюду находят изуродованные тела жителей местной деревушки. Народ напуган и во всем винит Ансгара, который стал для них ночным кошмаром. Он шлет письмо брату в Париж с мольбой о помощи, и Вильхельм возвращается на родину. Неужели его брат действительно виновен в этих жутких преступлениях? Вскоре Вильхельму открываются еще более страшные тайны...

Качество: BDRip [720p]
Видео: MPEG4 Video (H264), 1280x544, 24.00fps, 4210 Кбит/сек
Аудио1: AC3, 48000Hz, 6ch,  448 Кбит/сек русский
Аудио2: DTS, 48000Hz, 6ch, 1509 Кбит/сек[норвежский]  
Продолжительность: 01:22:05
Перевод: Любительский (двухголосый) [DeadSno & den904] - перевод на русский язык [Станислав Бельков]
Субтитры: Русские, английские
Общее
Уникальный идентификатор                 : 228090605152634795603140581694473729766 (0xAB98A7140CC3387DA32E07FBC67376E6)
Полное имя                               : D:prislanoeThe.Veil.of.Twilight.2014.Blu.Ray.720p.mkv
Формат                                   : Matroska
Версия формата                           : Version 4 / Version 2
Размер файла                             : 3,53 Гбайт
Продолжительность                        : 1 ч. 22 м.
Общий поток                              : 6165 Кбит/сек
Название фильма                          : Release Group CINEMANIA
Дата кодирования                         : UTC 2015-01-29 18:44:17
Программа кодирования                    : mkvmerge v7.5.0 ('Glass Culture') 64bit built on Jan  4 2015 16:48:44
Библиотека кодирования                   : libebml v1.3.1 + libmatroska v1.4.2

Видео
Идентификатор                            : 1
Формат                                   : AVC
Формат/Информация                        : Advanced Video Codec
Профиль формата                          : High@L4.1
Параметр CABAC формата                   : Да
Параметр ReFrames формата                : 5 кадров
Идентификатор кодека                     : V_MPEG4/ISO/AVC
Продолжительность                        : 1 ч. 22 м.
Битрейт                                  : 4210 Кбит/сек
Ширина                                   : 1280 пикселей
Высота                                   : 544 пикселя
Соотношение сторон                       : 2,35:1
Режим частоты кадров                     : Постоянный
Частота кадров                           : 24,000 кадра/сек
Цветовое пространство                    : YUV
Субдискретизация насыщенности            : 4:2:0
Битовая глубина                          : 8 бит
Тип развёртки                            : Прогрессивная
Бит/(Пиксели*Кадры)                      : 0.252
Размер потока                            : 2,34 Гбайт (66%)
Заголовок                                : Release Group CINEMANIA
Библиотека кодирования                   : x264 core 144 r2525 40bb568
Настройки программы                      : cabac=1 / ref=5 / deblock=1:0:0 / analyse=0x3:0x133 / me=umh / subme=7 / psy=1 / psy_rd=1.00:0.00 / mixed_ref=1 / me_range=16 / chroma_me=1 / trellis=1 / 8x8dct=1 / cqm=0 / deadzone=21,11 / fast_pskip=0 / chroma_qp_offset=-2 / threads=18 / lookahead_threads=3 / sliced_threads=0 / nr=0 / decimate=1 / interlaced=0 / bluray_compat=0 / constrained_intra=0 / bframes=3 / b_pyramid=2 / b_adapt=1 / b_bias=0 / direct=1 / weightb=1 / open_gop=0 / weightp=2 / keyint=250 / keyint_min=23 / scenecut=40 / intra_refresh=0 / rc_lookahead=40 / rc=2pass / mbtree=1 / bitrate=4210 / ratetol=1.0 / qcomp=0.60 / qpmin=0 / qpmax=69 / qpstep=4 / cplxblur=20.0 / qblur=0.5 / ip_ratio=1.40 / aq=1:1.00
Язык                                     : Norwegian
Default                                  : Да
Forced                                   : Нет

Аудио #1
Идентификатор                            : 2
Формат                                   : AC-3
Формат/Информация                        : Audio Coding 3
Расширение режима                        : CM (complete main)
Параметр Endianness формата              : Big
Идентификатор кодека                     : A_AC3
Продолжительность                        : 1 ч. 22 м.
Вид битрейта                             : Постоянный
Битрейт                                  : 448 Кбит/сек
Каналы                                   : 6 каналов
Расположение каналов                     : Front: L C R, Side: L R, LFE
Частота                                  : 48,0 КГц
Битовая глубина                          : 16 бит
Метод сжатия                             : С потерями
Размер потока                            : 263 Мбайт (7%)
Заголовок                                : Влад и Снежинка
Язык                                     : Russian
Default                                  : Да
Forced                                   : Да

Аудио #2
Идентификатор                            : 3
Формат                                   : DTS
Формат/Информация                        : Digital Theater Systems
Режим                                    : 16
Параметр Endianness формата              : Big
Идентификатор кодека                     : A_DTS
Продолжительность                        : 1 ч. 22 м.
Вид битрейта                             : Постоянный
Битрейт                                  : 1509 Кбит/сек
Каналы                                   : 6 каналов
Расположение каналов                     : Front: L C R, Side: L R, LFE
Частота                                  : 48,0 КГц
Битовая глубина                          : 24 бит
Метод сжатия                             : С потерями
Размер потока                            : 886 Мбайт (24%)
Язык                                     : Norwegian
Default                                  : Нет
Forced                                   : Нет

Текст #1
Идентификатор                            : 4
Формат                                   : UTF-8
Идентификатор кодека                     : S_TEXT/UTF8
Идентификатор кодека/Информация          : UTF-8 Plain Text
Язык                                     : Russian
Default                                  : Да
Forced                                   : Да

Текст #2
Идентификатор                            : 5
Формат                                   : UTF-8
Идентификатор кодека                     : S_TEXT/UTF8
Идентификатор кодека/Информация          : UTF-8 Plain Text
Заголовок                                : С.Бельков
Язык                                     : Russian
Default                                  : Нет
Forced                                   : Нет

Текст #3
Идентификатор                            : 6
Формат                                   : UTF-8
Идентификатор кодека                     : S_TEXT/UTF8
Идентификатор кодека/Информация          : UTF-8 Plain Text
Язык                                     : English
Default                                  : Нет
Forced                                   : Нет







Вернуться к началу
 Профиль  
 
   Похожие торренты   Автор   Торрент   Размер 
В этой теме нет новых непрочитанных сообщений. Сумеречная зона / Twilight Zone: The Movie [Ужасы, фантастика, фэнтези, 1983] BDRip 720p, Mvo

salma3

0 | 0

4.9 ГБ

В этой теме нет новых непрочитанных сообщений. Сумеречная зона: Фильм / Twilight Zone: The Movie [ужасы, фантастика, фэнтези, 1983] BDRip-AVC, Mvo

salma3

47 | 3

2.18 ГБ

В этой теме нет новых непрочитанных сообщений. Сумеречная зона / Twilight Zone: The Movie [Ужасы, фантастика, фэнтези, 1983] BDRip 1080p, Mvo

salma3

7 | 2

8.08 ГБ

В этой теме нет новых непрочитанных сообщений. Ворон 3: Спасение / The Crow: Salvation [фэнтези, боевик, триллер, криминал, детектив, 2000] BDRip 720p, Mvo

salma3

23 | 8

4.36 ГБ

В этой теме нет новых непрочитанных сообщений. Солёное поле боя / Salting the Battlefield (Дэвид Хэа) [драма, криминал, детектив, 2014] BDRip 720p, avo

Dracon

192 | 11

3.32 ГБ

В этой теме нет новых непрочитанных сообщений. Ганмен / The Gunman (Пьер Морель) [Боевик, Триллер, Драма, Криминал, Детектив, 2014] BDRip 720p, Dub [iTunes]

Dracon

202 | 4

5.13 ГБ

В этой теме нет новых непрочитанных сообщений. Сумеречная зона / Twilight Zone: The Movie [Ужасы, фантастика, фэнтези, 1983] HDRip, Mvo

salma3

5 | 0

745.26 МБ


Начать новую тему Ответить на тему  [ 1 сообщение ] 




Для Мосгорсуда, Роскомнадзора и рекламодателей:: mosgorsud-torrent[собачка]yandex.ru
cron