Торрент файл
скачать торрент магнет ссылка Добавлен: 08 фев 2015, 11:41
Размер: 5.66 ГБ
Сидеров: 9
Личеров: 3
Автор

СообщениеДобавлено: 29 янв 2015, 11:15 

Не в сети
Зам. Админа
Аватара пользователя
Дата регистрации:
02 дек 2010, 12:39
Спасибо: 12642 / 214
Сообщения: 28010
Год выхода: 2014
Жанр: Фантастика,Ужасы,Триллер
Режиссер: Кэйси Ла Скала
В ролях: Джонни Пакар, Шон Сайпос, Брайан Дечарт, Алекса ПенаВега, Италиа Риччи, Лиз Е. Морган, Джон Пайпер-Фергюсон, Ким Пачеко, Хейли Ловитт, Эрин Мерфи

О фильме:
Несколько молодых людей собираются вместе, чтобы отпраздновать свадьбу двух своих друзей. Во время празднования происходит череда катастрофических событий, которая превращает празднование в борьбу не на жизнь, а на смерть. Герои отчаянно сражаются за свое убежище, за свои жизни с врагом, которого они никогда не встречали…

Качество: BDRip [720p]
Видео:MPEG-4 AVC, 7176 Кбит/с, 1280x694
Аудио : Русский (АС3, 6 ch, 384 Кбит/с), английский (DTS, 6 ch, 1510 Кбит/с)
Перевод: Профессиональный многоголосый [Лицензия]
Продолжительность: 88 мин. / 01:28
Субтитры: Английские
Общее
Уникальный идентификатор : 220600632986261791764362836004155121474 (0xA5F622F07A59ABF08F8C804F87335F42)
Полное имя : D:ТОРРЕНТЫThe.Remaining.2014.Blu.Ray.720p..mkv
Формат : Matroska
Версия формата : Version 4 / Version 2
Размер файла : 5,42 Гбайт
Продолжительность : 1 ч. 27 м.
Общий поток : 8832 Кбит/сек
Дата кодирования : UTC 2015-01-28 19:25:33
Программа кодирования : mkvmerge v7.5.0 ('Glass Culture') 64bit built on Jan 4 2015 16:48:44
Библиотека кодирования : libebml v1.3.1 + libmatroska v1.4.2

Видео
Идентификатор : 1
Формат : AVC
Формат/Информация : Advanced Video Codec
Профиль формата : High@L4.1
Параметр CABAC формата : Да
Параметр ReFrames формата : 9 кадров
Идентификатор кодека : V_MPEG4/ISO/AVC
Битрейт : 6315 Кбит/сек
Ширина : 1280 пикселей
Высота : 694 пикселя
Соотношение сторон : 1,85:1
Режим частоты кадров : Переменный
Частота кадров в оригинале : 23,976 кадра/сек
Цветовое пространство : YUV
Субдискретизация насыщенности : 4:2:0
Битовая глубина : 8 бит
Тип развёртки : Прогрессивная
Библиотека кодирования : x264 core 142 r2431+42 c69a006 tMod [8-bit@all X86_64]
Настройки программы : cabac=1 / ref=9 / deblock=1:-3:-3 / analyse=0x3:0x133 / me=umh / subme=11 / psy=1 / fade_compensate=0.00 / psy_rd=1.05:0.00 / mixed_ref=1 / me_range=24 / chroma_me=1 / trellis=2 / 8x8dct=1 / cqm=0 / deadzone=21,11 / fast_pskip=0 / chroma_qp_offset=-2 / threads=24 / lookahead_threads=4 / sliced_threads=0 / nr=0 / decimate=0 / interlaced=0 / bluray_compat=0 / constrained_intra=0 / fgo=0 / bframes=8 / b_pyramid=2 / b_adapt=2 / b_bias=0 / direct=3 / weightb=1 / open_gop=0 / weightp=2 / keyint=250 / keyint_min=23 / scenecut=40 / intra_refresh=0 / rc=crf / mbtree=0 / crf=16.5000 / qcomp=0.70 / qpmin=0:0:0 / qpmax=69:69:69 / qpstep=4 / ip_ratio=1.20 / pb_ratio=1.10 / aq=1:0.75 / aq-sensitivity=10.00 / aq-factor=1.00:1.00:1.00 / aq2=0 / aq3=0
Язык : English
Default : Да
Forced : Нет

Аудио #1
Идентификатор : 2
Формат : AC-3
Формат/Информация : Audio Coding 3
Расширение режима : CM (complete main)
Параметр Endianness формата : Big
Идентификатор кодека : A_AC3
Продолжительность : 1 ч. 27 м.
Вид битрейта : Постоянный
Битрейт : 192 Кбит/сек
Каналы : 2 канала
Расположение каналов : Front: L R
Частота : 48,0 КГц
Битовая глубина : 16 бит
Метод сжатия : С потерями
Размер потока : 121 Мбайт (2%)
Заголовок : online movies
Язык : Russian
Default : Да
Forced : Да

Аудио #2
Идентификатор : 3
Формат : AC-3
Формат/Информация : Audio Coding 3
Расширение режима : CM (complete main)
Параметр Endianness формата : Big
Идентификатор кодека : A_AC3
Продолжительность : 1 ч. 27 м.
Вид битрейта : Постоянный
Битрейт : 640 Кбит/сек
Каналы : 6 каналов
Расположение каналов : Front: L C R, Side: L R, LFE
Частота : 48,0 КГц
Битовая глубина : 16 бит
Метод сжатия : С потерями
Размер потока : 402 Мбайт (7%)
Заголовок : Влад и Снежинка
Язык : Russian
Default : Нет
Forced : Нет

Аудио #3
Идентификатор : 4
Формат : DTS
Формат/Информация : Digital Theater Systems
Идентификатор кодека : A_DTS
Продолжительность : 1 ч. 27 м.
Вид битрейта : Постоянный
Битрейт : 1510 Кбит/сек
Каналы : 6 каналов
Расположение каналов : Front: L C R, Side: L R, LFE
Частота : 48,0 КГц
Битовая глубина : 24 бит
Метод сжатия : С потерями
Размер потока : 949 Мбайт (17%)
Язык : English
Default : Нет
Forced : Нет

Текст #1
Идентификатор : 6
Формат : UTF-8
Идентификатор кодека : S_TEXT/UTF8
Идентификатор кодека/Информация : UTF-8 Plain Text
Язык : English
Default : Нет
Forced : Нет

Текст #2
Идентификатор : 7
Формат : UTF-8
Идентификатор кодека : S_TEXT/UTF8
Идентификатор кодека/Информация : UTF-8 Plain Text
Заголовок : SDH
Язык : English
Default : Нет
Forced : Нет

Меню
00:00:00.000 : en:00:00:00.000
00:06:06.616 : en:00:06:06.616
00:10:38.972 : en:00:10:38.972
00:16:27.069 : en:00:16:27.069
00:26:16.658 : en:00:26:16.658
00:32:54.055 : en:00:32:54.055
00:42:45.438 : en:00:42:45.438
00:46:11.310 : en:00:46:11.310
00:49:39.977 : en:00:49:39.977
00:55:47.135 : en:00:55:47.135
00:57:37.287 : en:00:57:37.287
01:02:49.641 : en:01:02:49.641
01:07:54.696 : en:01:07:54.696
01:11:14.437 : en:01:11:14.437
01:15:49.295 : en:01:15:49.295
01:20:33.954 : en:01:20:33.954








реклама партнёра


Вернуться к началу
 Профиль  
 
   Похожие торренты   Автор   Торрент   Размер 
В этой теме нет новых непрочитанных сообщений. Живое / Life [ужасы, фантастика, триллер, 2017] BDRip 720p, Dub [Лицензия]

salma3

38 | 294

6.64 ГБ

В этой теме нет новых непрочитанных сообщений. Морган / Morgan [ужасы, фантастика, триллер, 2016] BDRip 720p, Dub [iPad] [Лицензия]

salma3

41 | 20

1.56 ГБ

В этой теме нет новых непрочитанных сообщений. Морган / Morgan [ужасы, фантастика, триллер, детектив, 2016] BDRip EUR 720p, Dub+Sub [Лицензия]

salma3

92 | 21

5.26 ГБ

В этой теме нет новых непрочитанных сообщений. Чужой: Завет / Alien: Covenant [ужасы, фантастика, триллер, 2017] BDRip 720p, Dub [Лицензия]

salma3

528 | 40

5.24 ГБ

В этой теме нет новых непрочитанных сообщений. Чужой: Завет / Alien: Covenant [ужасы, фантастика, триллер, 2017] BDRip 720p, Dub [Лицензия]

salma3

1997 | 129

4.87 ГБ

В этой теме нет новых непрочитанных сообщений. Ближе к Богу / Closer to God [ужасы, фантастика, триллер, 2014] BDRip 720p, Mvo

salma3

150 | 52

3.1 ГБ

В этой теме нет новых непрочитанных сообщений. Обитель зла: Последняя глава / Resident Evil: The Final Chapter [ужасы, фантастика, боевик, триллер, 2016] BDRip 720p, Dub+Sub [Лицензия]

salma3

715 | 201

3.93 ГБ


СообщениеДобавлено: 08 фев 2015, 11:41 

Не в сети
Зам. Админа
Аватара пользователя
Дата регистрации:
02 дек 2010, 12:39
Спасибо: 12642 / 214
Сообщения: 28010
Dracon писал(а):
Re: Оставшийся / The Remaining (Кэйси Ла Скала) [Фантастика, Ужасы, Триллер, 2014] BDRip 720p, Mvo [Лицензия]


Вернуться к началу
 Профиль  
 
Начать новую тему Ответить на тему  [ Сообщений: 2 ] 




Для Мосгорсуда, Роскомнадзора и рекламодателей:: mosgorsud-torrent[собачка]yandex.ru
cron