Торрент файл
скачать торрент магнет ссылка Добавлен: 28 янв 2015, 16:21
Размер: 6.34 ГБ
Сидеров: 4
Личеров: 4
Автор

СообщениеДобавлено: 28 янв 2015, 16:21 

Не в сети
Зам. Админа
Аватара пользователя
Дата регистрации:
02 дек 2010, 12:39
Спасибо: 12642 / 214
Сообщения: 28010
Год выхода: 2014
Жанр: Боевик,Драма,История
Режиссер: Кейдзи Отомо
В ролях: Аои Ю, Йосукэ Эгути, Масахару Фукуяма, Мин Танака, Рюноскэ Камики, Такеру Сато, Тацуя Фудзивара, Хироко Ясики, Эми Такеи, Юсуке Исейа

О фильме:
После того, как бывший наемный убийца Кэнсин Химуру стал на путь исправления, он поклялся, что больше никогда не будет убивать и использовать свой меч для своей защиты. Однако обстоятельства складываются так, что ему снова приходится обнажить свое оружие в борьбе за справедливость. Это происходит после того, как он узнает о том, что в Киото вернулся расчетливый и жестокий убийца Шишио Макато, желающий свергнуть действующее правительство и прибрать власть в свои руки. Кэнсин решает стать на защиту правителя, прекрасно понимая, что только он сможет справиться с могущественным врагом. Однако силы Химуру оказываются не безграничны, после чего на помощь приходят его верные друзья. Теперь их ожидает последняя битва, которая покажет, кто станет настоящей легендой...


Качество: BDRip [720p]
Видео: MPEG4/ISO/AVC, 1280x536, 23,976 кадра/сек, 5917   Кбит/сек
Аудио 1: Русский: АС3, 48 kHz, 2 ch, 192 kbps avg
Аудио 2: Японский: АС3, 48 kHz, 6 ch, 640 kbps avg
Субтитры: Русские [ФСГ Phoenix Cor], Английские  
Дополнительно: Сохранены оригинальные чаптеры как на Blu-Ray
Продолжительность: 02:14:29
Перевод: Любительский (двухголосый) [DeadSno & den904]
Общее
Уникальный идентификатор : 188135063494825839946687554306646552346 (0x8D897EC7E0A0CB398BF6945C3A5D2F1A)
Полное имя : D:ТОРРЕНТЫRurouni.Kenshin.The.Legend.Ends.2014.Blu.Ray.720p..mkv
Формат : Matroska
Версия формата : Version 4 / Version 2
Размер файла : 6,34 Гбайт
Продолжительность : 2 ч. 14 м.
Общий поток : 6751 Кбит/сек
Дата кодирования : UTC 2015-01-27 22:48:41
Программа кодирования : mkvmerge v7.5.0 ('Glass Culture') 64bit built on Jan 4 2015 16:48:44
Библиотека кодирования : libebml v1.3.1 + libmatroska v1.4.2

Видео
Идентификатор : 1
Формат : AVC
Формат/Информация : Advanced Video Codec
Профиль формата : High@L5.1
Параметр CABAC формата : Да
Параметр ReFrames формата : 12 кадров
Идентификатор кодека : V_MPEG4/ISO/AVC
Битрейт : 5917 Кбит/сек
Ширина : 1280 пикселей
Высота : 536 пикселей
Соотношение сторон : 2,40:1
Режим частоты кадров : Переменный
Частота кадров в оригинале : 23,976 кадра/сек
Цветовое пространство : YUV
Субдискретизация насыщенности : 4:2:0
Битовая глубина : 8 бит
Тип развёртки : Прогрессивная
Бит/(Пиксели*Кадры) : 0.360
Библиотека кодирования : x264 core 142 r2431 ac76440
Настройки программы : cabac=1 / ref=12 / deblock=1:-1:-1 / analyse=0x3:0x133 / me=umh / subme=9 / psy=1 / psy_rd=1.05:0.00 / mixed_ref=1 / me_range=16 / chroma_me=1 / trellis=2 / 8x8dct=1 / cqm=0 / deadzone=21,11 / fast_pskip=1 / chroma_qp_offset=-2 / threads=16 / lookahead_threads=4 / sliced_threads=0 / nr=0 / decimate=1 / interlaced=0 / bluray_compat=0 / constrained_intra=0 / bframes=12 / b_pyramid=2 / b_adapt=2 / b_bias=0 / direct=3 / weightb=1 / open_gop=0 / weightp=2 / keyint=240 / keyint_min=23 / scenecut=40 / intra_refresh=0 / rc_lookahead=60 / rc=2pass / mbtree=1 / bitrate=5917 / ratetol=1.0 / qcomp=0.60 / qpmin=10 / qpmax=51 / qpstep=4 / cplxblur=20.0 / qblur=0.5 / vbv_maxrate=300000 / vbv_bufsize=300000 / nal_hrd=none / filler=0 / ip_ratio=1.40 / aq=1:1.40
Язык : English
Default : Да
Forced : Нет
Коэффициенты матрицы : BT.709

Аудио #1
Идентификатор : 2
Формат : AC-3
Формат/Информация : Audio Coding 3
Расширение режима : CM (complete main)
Параметр Endianness формата : Big
Идентификатор кодека : A_AC3
Продолжительность : 2 ч. 14 м.
Вид битрейта : Постоянный
Битрейт : 192 Кбит/сек
Каналы : 2 канала
Расположение каналов : Front: L R
Частота : 48,0 КГц
Битовая глубина : 16 бит
Метод сжатия : С потерями
Размер потока : 185 Мбайт (3%)
Заголовок : Влад и Снежинка
Язык : Russian
Default : Да
Forced : Да

Аудио #2
Идентификатор : 3
Формат : AC-3
Формат/Информация : Audio Coding 3
Расширение режима : CM (complete main)
Параметр Endianness формата : Big
Идентификатор кодека : A_AC3
Продолжительность : 2 ч. 14 м.
Вид битрейта : Постоянный
Битрейт : 640 Кбит/сек
Каналы : 6 каналов
Расположение каналов : Front: L C R, Side: L R, LFE
Частота : 48,0 КГц
Битовая глубина : 16 бит
Метод сжатия : С потерями
Размер потока : 616 Мбайт (9%)
Язык : Japanese
Default : Нет
Forced : Нет

Текст #2
Идентификатор : 5
Формат : UTF-8
Идентификатор кодека : S_TEXT/UTF8
Идентификатор кодека/Информация : UTF-8 Plain Text
Заголовок : ФСГ Phoenix Cor
Язык : Russian
Default : Нет
Forced : Нет

Текст #3
Идентификатор : 6
Формат : UTF-8
Идентификатор кодека : S_TEXT/UTF8
Идентификатор кодека/Информация : UTF-8 Plain Text
Язык : English
Default : Нет
Forced : Нет

Меню
00:00:00.000 : en:Chapter 01
00:08:47.568 : en:Chapter 02
00:21:57.399 : en:Chapter 03
00:29:51.915 : en:Chapter 04
00:44:32.086 : en:Chapter 05
00:53:33.585 : en:Chapter 06
01:07:57.031 : en:Chapter 07
01:20:54.140 : en:Chapter 08
01:31:40.369 : en:Chapter 09
01:42:15.170 : en:Chapter 10
02:00:12.496 : en:Chapter 11
02:06:59.778 : en:Chapter 12
02:14:29.061 : en:Chapter 13








реклама партнёра


Вернуться к началу
 Профиль  
 
   Похожие торренты   Автор   Торрент   Размер 
В этой теме нет новых непрочитанных сообщений. Джеронимо: Американская легенда / Geronimo: An American Legend [Исторический, драма, вестерн, 1993] BDRip 720p, Mvo

salma3

44 | 33

7.25 ГБ

В этой теме нет новых непрочитанных сообщений. Феи: Легенда о чудовище / Legend of the NeverBeast (Стив Лотер) [мультфильм, фэнтези, приключения, семейный, 2014] BDRip 720p, Dub+Sub [Лицензия]

Dracon

112 | 4

4.32 ГБ

В этой теме нет новых непрочитанных сообщений. Феи: Легенда о чудовище / Legend of the NeverBeast (Стив Лотер) [мультфильм, фэнтези, приключения, семейный, 2014] BDRip 720p, Dub [iTunes Russia]

Dracon

50 | 3

4.18 ГБ

В этой теме нет новых непрочитанных сообщений. Легенда / Legend [Триллер, драма, криминал, 2015] BDRip 720p, dub [iTunes]

Dracon

11078 | 1602

4.72 ГБ

В этой теме нет новых непрочитанных сообщений. Хранитель: Легенда об Омаре Хайяме / The Keeper: The Legend of Omar Khayyam [Драма, приключения, семейный, 2005] BDRip 720p, Mvo

salma3

121 | 39

4.16 ГБ

В этой теме нет новых непрочитанных сообщений. Феи: Легенда о чудовище / Legend of the NeverBeast (Стив Лотер) [мультфильм, фэнтези, приключения, семейный, 2014] BDRip-AVC, Dub+Sub [Лицензия]

Dracon

192 | 4

1.77 ГБ

В этой теме нет новых непрочитанных сообщений. Феи: Легенда о чудовище / Legend of the NeverBeast (Стив Лотер) [мультфильм, фэнтези, приключения, семейный, 2014] BDRip 1080p, Dub+Sub [Лицензия]

Dracon

329 | 12

7.15 ГБ


Начать новую тему Ответить на тему  [ 1 сообщение ] 




Для Мосгорсуда, Роскомнадзора и рекламодателей:: mosgorsud-torrent[собачка]yandex.ru
cron