Торрент файл
скачать торрент магнет ссылка Добавлен: 23 янв 2015, 21:54
Размер: 22.26 ГБ
Сидеров: 43
Личеров: 7
Автор

СообщениеДобавлено: 23 янв 2015, 21:54 

Не в сети
Зам. Админа
Аватара пользователя
Дата регистрации:
02 дек 2010, 12:39
Спасибо: 12623 / 214
Сообщения: 28012
Год выпуска: 2014
Жанр: Ужасы, фэнтези, боевик, драма, вампиры
Выпущено: США, Legendary Pictures, Michael De Luca Productions, Universal Pictures
Режиссер: Гари Шор
В ролях: Люк Эванс, Сара Гадон, Доминик Купер, Арт Паркинсон, Чарльз Дэнс, Дайармейд Мерта, Пол Кэй, Уильям Хьюстон, Ной Хантли, Ронан Вайберт
О фильме: Влад Дракула был величайшим правителем, доблестным воином и страстным мужчиной. Но судьба свела его с врагом, коварство которого не знало границ. И тогда Дракула заключил сделку — нечеловеческая сила в обмен на самую малость — бессмертную душу…

Качество: BDRemux 1080p
Видео: MPEG-4 AVC, 29726 Кбит/с, 1920x1080
Аудио: Русский (AC3, 6 ch, 448 Кбит/с), (DTS, 6 ch, 768 Кбит/с), английский (DTS-HD MA, 6 ch, 3539 Кбит/с), (DTS, 6 ch, 768 Кбит/с), (AAC, 2 ch, 192 Кбит/с)
Размер: 22.26 ГБ
Перевод: Дублированный [лицензия]
Субтитры: Русские, английские, испанские, французские, немецкие

Сохранены оригинальные чаптеры как на Blu-Ray.

Общее
Уникальный идентификатор : 233884844045582369284580621102292113085 (0xAFF4951CA90E2BEEB9DBE4A85CC796BD)
Полное имя : C:1Dracula.Untold.2014.BDremux.mkv
Формат : Matroska
Версия формата : Version 4 / Version 2
Размер файла : 22,3 Гбайт
Продолжительность : 1 ч. 32 м.
Режим общего битрейта : Переменный
Общий поток : 34,6 Мбит/сек
Дата кодирования : UTC 2015-01-23 16:04:54
Программа кодирования : mkvmerge v7.3.0 ('Nouages') 64bit built on Oct 22 2014 18:53:34
Библиотека кодирования : libebml v1.3.0 + libmatroska v1.4.1
_STATISTICS_WRITING_APP : mkvmerge v7.3.0 ('Nouages') 64bit built on Oct 22 2014 18:53:34
_STATISTICS_WRITING_DATE_UTC : 2015-01-23 16:04:54
_STATISTICS_TAGS : BPS DURATION NUMBER_OF_FRAMES NUMBER_OF_BYTES
DURATION : 01:32:08.406000000
NUMBER_OF_FRAMES : 518288
NUMBER_OF_BYTES : 530726912
Видео
Идентификатор : 1
Формат : AVC
Формат/Информация : Advanced Video Codec
Профиль формата : High@L4.1
Параметр CABAC формата : Да
Параметр ReFrames формата : 4 кадра
Идентификатор кодека : V_MPEG4/ISO/AVC
Продолжительность : 1 ч. 32 м.
Вид битрейта : Переменный
Максимальный битрейт : 33,0 Мбит/сек
Ширина : 1920 пикселей
Высота : 1080 пикселей
Соотношение сторон : 16:9
Режим частоты кадров : Постоянный
Частота кадров : 23,976 кадра/сек
Цветовое пространство : YUV
Субдискретизация насыщенности : 4:2:0
Битовая глубина : 8 бит
Тип развёртки : Прогрессивная
Default : Да
Forced : Нет
Аудио #1
Идентификатор : 2
Формат : DTS
Формат/Информация : Digital Theater Systems
Режим : 16
Параметр Endianness формата : Big
Идентификатор кодека : A_DTS
Продолжительность : 1 ч. 32 м.
Вид битрейта : Постоянный
Битрейт : 768 Кбит/сек
Каналы : 6 каналов
Расположение каналов : Front: L C R, Side: L R, LFE
Частота : 48,0 КГц
Битовая глубина : 24 бит
Метод сжатия : С потерями
Размер потока : 506 Мбайт (2%)
Язык : Russian
Default : Да
Forced : Нет
Аудио #2
Идентификатор : 3
Формат : DTS
Формат/Информация : Digital Theater Systems
Профиль формата : MA / Core
Режим : 16
Параметр Endianness формата : Big
Идентификатор кодека : A_DTS
Продолжительность : 1 ч. 32 м.
Вид битрейта : Переменный
Битрейт : Неизвестно / 1509 Кбит/сек
Каналы : 6 каналов
Расположение каналов : Front: L C R, Side: L R, LFE
Частота : 48,0 КГц
Битовая глубина : 24 бит
Метод сжатия : Без потерь / Lossy
Язык : English
Default : Нет
Forced : Нет
Аудио #3
Идентификатор : 4
Формат : DTS
Формат/Информация : Digital Theater Systems
Режим : 16
Параметр Endianness формата : Big
Идентификатор кодека : A_DTS
Продолжительность : 1 ч. 32 м.
Вид битрейта : Постоянный
Битрейт : 768 Кбит/сек
Каналы : 6 каналов
Расположение каналов : Front: L C R, Side: L R, LFE
Частота : 48,0 КГц
Битовая глубина : 24 бит
Метод сжатия : С потерями
Размер потока : 506 Мбайт (2%)
Язык : English
Default : Нет
Forced : Нет
Аудио #4
Идентификатор : 5
Формат : AC-3
Формат/Информация : Audio Coding 3
Расширение режима : CM (complete main)
Параметр Endianness формата : Big
Идентификатор кодека : A_AC3
Продолжительность : 1 ч. 32 м.
Вид битрейта : Постоянный
Битрейт : 448 Кбит/сек
Каналы : 6 каналов
Расположение каналов : Front: L C R, Side: L R, LFE
Частота : 48,0 КГц
Битовая глубина : 16 бит
Метод сжатия : С потерями
Размер потока : 295 Мбайт (1%)
Язык : Russian
Default : Нет
Forced : Нет
Аудио #5
Идентификатор : 6
Формат : AAC
Формат/Информация : Advanced Audio Codec
Профиль формата : LC
Идентификатор кодека : A_AAC
Продолжительность : 1 ч. 32 м.
Каналы : 2 канала
Расположение каналов : Front: L R
Частота : 48,0 КГц
Метод сжатия : С потерями
Задержка видео : 9 мс.
Заголовок : Feature Commentary with Director Gary Shore and Production Designer François Audouy
Язык : English
Default : Нет
Forced : Нет
Текст #1
Идентификатор : 7
Формат : UTF-8
Идентификатор кодека : S_TEXT/UTF8
Идентификатор кодека/Информация : UTF-8 Plain Text
Язык : Russian
Default : Нет
Forced : Нет
Текст #2
Идентификатор : 8
Формат : UTF-8
Идентификатор кодека : S_TEXT/UTF8
Идентификатор кодека/Информация : UTF-8 Plain Text
Заголовок : Forced
Язык : English
Default : Нет
Forced : Нет
Текст #3
Идентификатор : 9
Формат : UTF-8
Идентификатор кодека : S_TEXT/UTF8
Идентификатор кодека/Информация : UTF-8 Plain Text
Язык : English
Default : Нет
Forced : Нет
Текст #4
Идентификатор : 10
Формат : UTF-8
Идентификатор кодека : S_TEXT/UTF8
Идентификатор кодека/Информация : UTF-8 Plain Text
Заголовок : SDH
Язык : English
Default : Нет
Forced : Нет
Текст #5
Идентификатор : 11
Формат : UTF-8
Идентификатор кодека : S_TEXT/UTF8
Идентификатор кодека/Информация : UTF-8 Plain Text
Язык : French
Default : Нет
Forced : Нет
Текст #6
Идентификатор : 12
Формат : UTF-8
Идентификатор кодека : S_TEXT/UTF8
Идентификатор кодека/Информация : UTF-8 Plain Text
Язык : German
Default : Нет
Forced : Нет
Текст #7
Идентификатор : 13
Формат : UTF-8
Идентификатор кодека : S_TEXT/UTF8
Идентификатор кодека/Информация : UTF-8 Plain Text
Язык : Spanish
Default : Нет
Forced : Нет
Меню
00:00:00.000 : en:Chapter 01
00:04:07.288 : en:Chapter 02
00:07:20.565 : en:Chapter 03
00:11:32.817 : en:Chapter 04
00:16:30.698 : en:Chapter 05
00:22:53.663 : en:Chapter 06
00:30:23.446 : en:Chapter 07
00:34:16.763 : en:Chapter 08
00:38:57.043 : en:Chapter 09
00:43:00.369 : en:Chapter 10
00:47:03.737 : en:Chapter 11
00:53:16.735 : en:Chapter 12
00:57:39.831 : en:Chapter 13
01:00:47.310 : en:Chapter 14
01:04:30.032 : en:Chapter 15
01:09:12.189 : en:Chapter 16
01:12:47.613 : en:Chapter 17
01:17:11.877 : en:Chapter 18
01:21:52.657 : en:Chapter 19
01:25:02.555 : en:Chapter 20









реклама партнёра


Вернуться к началу
 Профиль  
 
   Похожие торренты   Автор   Торрент   Размер 
В этой теме нет новых непрочитанных сообщений. Дракула / Dracula Untold (Гари Шор) [ужасы, фэнтези, боевик, драма, военный, 2014] BDRip 1080p, Dub+Sub [Лицензия]

Dracon

135 | 6

6.76 ГБ

В этой теме нет новых непрочитанных сообщений. Дракула / Dracula Untold (Гари Шор) [ужасы, фэнтези, боевик, драма, военный, 2014] BDRip, Dub [Лицензия]

Dracon

415 | 17

1.37 ГБ

В этой теме нет новых непрочитанных сообщений. Дракула / Dracula Untold (Гари Шор) [2014, ужасы, фэнтези, боевик, драма, военный, WEB-DL 720p | iTunes] Dub

Nickolas3435

9058 | 142

2.87 ГБ

В этой теме нет новых непрочитанных сообщений. Дракула / Dracula Untold (Гари Шор) [2014, ужасы, фэнтези, боевик, драма, военный, WEB-DLRip | iTunes] Dub

Nickolas3435

6280 | 180

1.46 ГБ

В этой теме нет новых непрочитанных сообщений. Дракула / Dracula Untold (Гари Шор) [ужасы, фэнтези, боевик, драма, военный, 2014] BDRip 720p, Dub+Sub [iTunes]

Dracon

165 | 7

3.47 ГБ

В этой теме нет новых непрочитанных сообщений. Дракула / Dracula Untold [ужасы, фэнтези, боевик, драма, военный, 2014] WEB-DLRip-AVC, Dub [iTunes]

Dracon

1286 | 56

1.46 ГБ

В этой теме нет новых непрочитанных сообщений. Дракула / Dracula Untold [ужасы, фэнтези, боевик, драма, военный, 2014] BDRip 720p, Dub [iTunes]

Dracon

799 | 65

4.62 ГБ


Начать новую тему Ответить на тему  [ 1 сообщение ] 




Для Мосгорсуда, Роскомнадзора и рекламодателей:: mosgorsud-torrent[собачка]yandex.ru