Торрент файл
скачать торрент магнет ссылка Добавлен: 21 янв 2015, 22:13
Размер: 3.28 ГБ
Сидеров: 7
Личеров: 2
Автор

СообщениеДобавлено: 21 янв 2015, 22:13 

Не в сети
Зам. Админа
Аватара пользователя
Дата регистрации:
02 дек 2010, 12:39
Спасибо: 12654 / 214
Сообщения: 28010
Год выхода: 2015
Жанр: Драма,Приключения
Режиссер: Брайан Питер Фальк
В ролях: Том Фелтон, Гаррет Диллахант, Джейк Эйбел, Надя Парра

О фильме:
Одна из самых страшных историй Второй мировой войны, три пилота американских ВВС вынуждены выживать после крушения самолёта в южной части Тихого Океана. Имея только небольшой спасательный плот, без еды, воды и вспомогательных материалов, трио должно полагаться на самих себя, чтобы пережить голод, шторма и атаки акул, и привести свой маленький плот в безопасное место


Качество: WEB-DLRip[720p]
Видео: AVC, 4 063  Кбит/с, 1280x720, 23.976fps
Аудио:#1 Английский  - Dolby AC3,6ch,384bps,48000Hz
Аудио:#2- Русский - Dolby AC3,2ch,192kbps,48000Hz  
Субтитры: - русские ,английские
Продолжительность: 01:39:25
Перевод: Любительский (одноголосый)  [datynet]

Format : Matroska
ID : 1
Format : AVC
Format/Info : Advanced Video Codec
Format profile : High@L3.1
Format settings, CABAC : No
Format settings, ReFrames : 2 frames
Codec ID : V_MPEG4/ISO/AVC
Duration : 1h 39mn
Bit rate : 4 063 Kbps
Width : 1 280 pixels
Height : 720 pixels
Display aspect ratio : 16:9
Frame rate mode : Constant
Frame rate : 23.976 fps
Color space : YUV
Chroma subsampling : 4:2:0
Bit depth : 8 bits
Scan type : Progressive
Bits/(Pixel*Frame) : 0.184
Stream size : 2.82 GiB (90%)
Language : English
Default : Yes
Forced : No
Color primaries : BT.709
Transfer characteristics : BT.709
Matrix coefficients : BT.709
Color range : Limited

Audio
ID : 2
Format : AC-3
Format/Info : Audio Coding 3
Mode extension : CM (complete main)
Format settings, Endianness : Big
Codec ID : A_AC3
Duration : 1h 39mn
Bit rate mode : Constant
Bit rate : 384 Kbps
Channel(s) : 6 channels
Channel positions : Front: L C R, Side: L R, LFE
Sampling rate : 48.0 KHz
Bit depth : 16 bits
Compression mode : Lossy
Stream size : 273 MiB (8%)
Language : English
Default : Yes
Forced : No

Audio
ID : 3
Format : AC-3
Format/Info : Audio Coding 3
Mode extension : CM (complete main)
Format settings, Endianness : Big
Codec ID : A_AC3
Duration : 1h 39mn
Bit rate mode : Constant
Bit rate : 192 Kbps
Channel(s) : 2 channels
Channel positions :  Side: L R, LFE
Sampling rate : 48.0 KHz
Bit depth : 16 bits
Compression mode : Lossy
Stream size : 273 MiB (8%)
Language : Russian
Default : Yes
Forced : No

Text
ID : 3
Format : UTF-8
Codec ID : S_TEXT/UTF8
Codec ID/Info : UTF-8 Plain Text
Language : English
Default : No
Forced : No
Text

ID : 4
Format : UTF-8
Codec ID : S_TEXT/UTF8
Codec ID/Info : UTF-8 Plain Text
Language :Russian
Default : No
Forced : No
Menu
00:00:00.000 : en:Chapter 1
00:13:08.000 : en:Chapter 2
00:24:00.000 : en:Chapter 3
00:33:30.000 : en:Chapter 4
00:43:33.000 : en:Chapter 5
00:49:44.000 : en:Chapter 6
01:00:16.000 : en:Chapter 7
01:13:50.000 : en:Chapter 8
01:21:50.000 : en:Chapter 9
01:34:36.000 : en:End Credits







Вернуться к началу
 Профиль  
 
   Похожие торренты   Автор   Торрент   Размер 
В этой теме нет новых непрочитанных сообщений. Аббатство Даунтон / Downton Abbey [06х01-07 из 08] (Брайан Персивал, Энди Годдар, Брайан Келли) [2015, драма, исторический, WEB-DL 720p | BaibaKo]

Nickolas3434

171 | 129

11.22 ГБ

В этой теме нет новых непрочитанных сообщений. Аббатство Даунтон / Downton Abbey [06х01-08 из 08] (Брайан Персивал, Энди Годдар, Брайан Келли) [2015, драма, исторический, WEB-DL 720p | BaibaKo]

Dracon

28 | 21

13.55 ГБ

В этой теме нет новых непрочитанных сообщений. Ловец солнца / The Sunchaser [Драма, Криминал, Приключения, 1996] WEB-DLRip-AVC, Dvo

salma3

93 | 29

2.77 ГБ

В этой теме нет новых непрочитанных сообщений. Ловец солнца / The Sunchaser [драма, криминал, 1996] WEB-DL 720p, Dvo

salma3

89 | 225

4.18 ГБ

В этой теме нет новых непрочитанных сообщений. Агент Икс / Agent X [01х01-02 из 13] (Питер О’Фаллон, Ута Бризвитц, Феликс Энрикез Алькала) [2015, Боевик, приключения, драма, WEB-DL 720p | Jaskier]

Dracon

20 | 1

2.68 ГБ

В этой теме нет новых непрочитанных сообщений. Подростки против мамочек / Teens Vs MILFs (2014) HD 720p

salma3

19 | 13

6.66 ГБ

В этой теме нет новых непрочитанных сообщений. Слезы солнца / Tears of the Sun [боевик, триллер, драма, военный, 2003] BDRip 720p, Dub

salma3

71 | 22

7.84 ГБ


Начать новую тему Ответить на тему  [ 1 сообщение ] 




Для Мосгорсуда, Роскомнадзора и рекламодателей:: mosgorsud-torrent[собачка]yandex.ru
cron