Торрент файл
скачать торрент магнет ссылка Добавлен: 18 янв 2015, 22:07
Размер: 4.37 ГБ
Сидеров: 5
Личеров: 4
Автор

СообщениеДобавлено: 18 янв 2015, 22:07 

Не в сети
Зам. Админа
Аватара пользователя
Дата регистрации:
02 дек 2010, 12:39
Спасибо: 12625 / 214
Сообщения: 28010
Год выхода: 2013
Жанр: Драма, комедия
Режиссер: Тед Коланд
В ролях: Джастин Лонг, Джесс Вейкслер, Тайлер Лабин, Эддисон Тимлин, Шелли Лонг, Фрэнсис О’Коннор, Ивэн Джонс, Майкл Лэндис, Питер Сивертсен, Джеймс Детмар

О фильме:
Кристин и Скотт уверены, что этот день станет самым счастливым в их судьбе, ведь сегодня они сочетаются браком. Свидетелем на свадьбе становится Лампи, лучший друг Скотта. После окончания торжественного мероприятия молодожены собираются отправиться романтическое путешествие, однако их планы оказываются нарушены трагическим происшествием: Лампи обнаруживают мёртвым. И вскоре становится ясно, что эта смерть была неслучайной...


Качество: BDRip [720p]
Видео: MPEG4/ISO/AVC, 1280x544, 23.976 кадра/сек, 5000  Кбит/сек
Аудио 1: Русский (АС3, 48 kHz, 6 сh, 448 kbps avg)  
Аудио 2: Английский (DTS, 48 kHz, 6 ch, 1510 kbps avg)  
Субтитры: Русские [mr.IamRock], Aнглийские
Дополнительно: Сохранены оригинальные чаптеры как на Blu-ray
Продолжительность: 01:29:50
Перевод: Любительский (одноголосый) [Павел Морозов aka PashaUp]
Общее
Уникальный идентификатор : 209850175467107086503495506983663703130 (0x9DDFAC761389FAF4829D1D43E33C145A)
Полное имя : D:ТОРРЕНТЫBest.Man.Down.2012.Blu.Ray.720p..mkv
Формат : Matroska
Версия формата : Version 4 / Version 2
Размер файла : 4,37 Гбайт
Продолжительность : 1 ч. 29 м.
Общий поток : 6956 Кбит/сек
Дата кодирования : UTC 2015-01-18 12:28:13
Программа кодирования : mkvmerge v7.5.0 ('Glass Culture') 64bit built on Jan 4 2015 16:48:44
Библиотека кодирования : libebml v1.3.1 + libmatroska v1.4.2

Видео
Идентификатор : 1
Формат : AVC
Формат/Информация : Advanced Video Codec
Профиль формата : High@L4.1
Параметр CABAC формата : Да
Параметр ReFrames формата : 12 кадров
Идентификатор кодека : V_MPEG4/ISO/AVC
Продолжительность : 1 ч. 29 м.
Битрейт : 5000 Кбит/сек
Ширина : 1280 пикселей
Высота : 544 пикселя
Соотношение сторон : 2,35:1
Режим частоты кадров : Постоянный
Частота кадров : 23,976 кадра/сек
Цветовое пространство : YUV
Субдискретизация насыщенности : 4:2:0
Битовая глубина : 8 бит
Тип развёртки : Прогрессивная
Бит/(Пиксели*Кадры) : 0.299
Размер потока : 3,05 Гбайт (70%)
Библиотека кодирования : x264 core 133 r2334 a3ac64b
Настройки программы : cabac=1 / ref=12 / deblock=1:-3:-3 / analyse=0x3:0x113 / me=umh / subme=11 / psy=1 / psy_rd=1.00:0.00 / mixed_ref=1 / me_range=32 / chroma_me=1 / trellis=2 / 8x8dct=1 / cqm=0 / deadzone=21,11 / fast_pskip=0 / chroma_qp_offset=-2 / threads=6 / lookahead_threads=1 / sliced_threads=0 / nr=0 / decimate=0 / interlaced=0 / bluray_compat=0 / constrained_intra=0 / bframes=8 / b_pyramid=2 / b_adapt=2 / b_bias=0 / direct=3 / weightb=1 / open_gop=0 / weightp=2 / keyint=240 / keyint_min=24 / scenecut=40 / intra_refresh=0 / rc_lookahead=240 / rc=2pass / mbtree=1 / bitrate=5000 / ratetol=1.0 / qcomp=0.70 / qpmin=0 / qpmax=69 / qpstep=4 / cplxblur=20.0 / qblur=0.5 / ip_ratio=1.10 / aq=1:0.80
Язык : English
Default : Да
Forced : Нет

Аудио #1
Идентификатор : 2
Формат : AC-3
Формат/Информация : Audio Coding 3
Расширение режима : CM (complete main)
Параметр Endianness формата : Big
Идентификатор кодека : A_AC3
Продолжительность : 1 ч. 29 м.
Вид битрейта : Постоянный
Битрейт : 448 Кбит/сек
Каналы : 6 каналов
Расположение каналов : Front: L C R, Side: L R, LFE
Частота : 48,0 КГц
Битовая глубина : 16 бит
Метод сжатия : С потерями
Размер потока : 288 Мбайт (6%)
Заголовок : Павел Морозов
Язык : Russian
Default : Да
Forced : Да

Аудио #2
Идентификатор : 3
Формат : DTS
Формат/Информация : Digital Theater Systems
Идентификатор кодека : A_DTS
Продолжительность : 1 ч. 29 м.
Вид битрейта : Постоянный
Битрейт : 1510 Кбит/сек
Каналы : 6 каналов
Расположение каналов : Front: L C R, Side: L R, LFE
Частота : 48,0 КГц
Битовая глубина : 24 бит
Метод сжатия : С потерями
Размер потока : 970 Мбайт (22%)
Язык : English
Default : Нет
Forced : Нет

Текст #2
Идентификатор : 5
Формат : UTF-8
Идентификатор кодека : S_TEXT/UTF8
Идентификатор кодека/Информация : UTF-8 Plain Text
Заголовок : mr.IamRock
Язык : Russian
Default : Нет
Forced : Нет

Текст #3
Идентификатор : 6
Формат : UTF-8
Идентификатор кодека : S_TEXT/UTF8
Идентификатор кодека/Информация : UTF-8 Plain Text
Язык : English
Default : Нет
Forced : Нет








реклама партнёра


Вернуться к началу
 Профиль  
 
   Похожие торренты   Автор   Торрент   Размер 
В этой теме нет новых непрочитанных сообщений. Смерть свадебного свидетеля / Best Man Down (Тед Коланд) [Комедия, драма, 2013] BDRip 720p, Mvo+Sub

Dracon

106 | 3

4.21 ГБ

В этой теме нет новых непрочитанных сообщений. Смерть свадебного свидетеля / Best Man Down (Тед Коланд) [Драма, комедия, 2013] HDRip, Mvo

Dracon

486 | 11

1.36 ГБ

В этой теме нет новых непрочитанных сообщений. Смерть свадебного свидетеля / Best Man Down (Тед Коланд) [Драма, комедия, 2013] HDRip, avo

Dracon

261 | 37

1.36 ГБ

В этой теме нет новых непрочитанных сообщений. Смерть свадебного свидетеля / Best Man Down (Тед Коланд / Ted Koland) [2012г., комедия, драма, HDRip] Sub

Alfredovich

12 | 6

697.83 МБ

В этой теме нет новых непрочитанных сообщений. Маленькая смерть / The Little Death (Джошуа Лосон) [комедия, 2014] BDRip 720p, Mvo [iTunes]

Dracon

125 | 49

4.63 ГБ

В этой теме нет новых непрочитанных сообщений. Смерть в Голливуде / The Cat's Meow [Детектив, драма, 2001] BDRip 720p, Dvo+Sub

salma3

23 | 4

7.22 ГБ

В этой теме нет новых непрочитанных сообщений. Смерть зимой / Dead of Winter [ужасы, триллер, драма, 1987] BDRip 720p, Mvo=Dvo+Avo+Sub

salma3

42 | 33

5.6 ГБ


Начать новую тему Ответить на тему  [ 1 сообщение ] 




Для Мосгорсуда, Роскомнадзора и рекламодателей:: mosgorsud-torrent[собачка]yandex.ru