Торрент файл
скачать торрент магнет ссылка Добавлен: 15 янв 2015, 23:31
Размер: 8.93 ГБ
Сидеров: 112
Личеров: 31
Статус: (salma3)
Автор

СообщениеДобавлено: 15 янв 2015, 23:31 

Не в сети
Супермодератор
Аватара пользователя
Дата регистрации:
15 фев 2012, 16:44
Возраст: 28
Спасибо: 7203 / 2147
Сообщения: 65002
Год выпуска: 2007
Жанр: Триллер, драма, криминал
Режиссер: Терри Джордж

В ролях: Хоакин Феникс, Дженнифер Коннелли, Марк Руффало, Мира Сорвино, Эль Фаннинг, Эдди Алдерсон, Шон Керли, Энтони Короне, Джон Слэттери, Джон Ротмен

О фильме:Теплым сентябрьским вечером профессор колледжа Итан Лернер, его жена Грейс и их дочь Эмма посещают сольный концерт. Их 10-летний сын Джош играет на виолончели — красиво, как обычно. Его младшая сестра смотрит на него, и родители гордятся своим сыном. На обратном пути домой они все останавливаются на бензоколонке у Заповедной дороги...



Страна: США, Германия
Студия: Focus Features, Miracle Pictures, Nick Wechsler Productions
Продолжительность: 01:37:47
Перевод: Профессиональный многоголосый

Файл
Кодек: x264
Видео: MPEG-4 AVC, 10.9 Мбит/с, 1280x720, 25.000 кадр/с
Аудио #1: Русский (AC3, 6 ch, 448 Кбит/с) / Профессиональный многоголосый
Аудио #2: Английский (DTS, 6 ch, 1509 Кбит/с)
Субтитры: Русские, английские

Семпл

x264 [info]: frame I:823 Avg QP:16.34 size:127618
x264 [info]: frame P:27488 Avg QP:17.37 size: 80814
x264 [info]: frame B:118363 Avg QP:18.64 size: 49250

=================================

Format : Matroska
Format version : Version 2
File size : 8.93 GiB
Duration : 1h 37mn
Overall bit rate : 13.1 Mbps
Encoded date : UTC 2015-01-15 15:41:37
Writing application : mkvmerge v5.5.0 ('Healer') built on Apr 6 2012 21:43:24
Writing library : libebml v1.2.3 + libmatroska v1.3.0

Video
ID : 1
Format : AVC
Format/Info : Advanced Video Codec
Format profile : High@L4.1
Format settings, CABAC : Yes
Format settings, ReFrames : 9 frames
Codec ID : V_MPEG4/ISO/AVC
Duration : 1h 37mn
Bit rate : 10.9 Mbps
Width : 1 280 pixels
Height : 720 pixels
Display aspect ratio : 16:9
Frame rate mode : Constant
Frame rate : 25.000 fps
Color space : YUV
Chroma subsampling : 4:2:0
Bit depth : 8 bits
Scan type : Progressive
Bits/(Pixel*Frame) : 0.471
Stream size : 7.42 GiB (83%)
Title : Reservation Road (2007)
Writing library : x264 core 140 r2377+40 929f149 tMod [8-bit@all X86_64]
Encoding settings : cabac=1 / ref=9 / deblock=1:-3:-3 / analyse=0x3:0x133 / me=umh / subme=11 / psy=1 / fade_compensate=0.00 / psy_rd=1.00:0.00 / mixed_ref=1 / me_range=48 / chroma_me=1 / trellis=2 / 8x8dct=1 / cqm=0 / deadzone=21,11 / fast_pskip=0 / chroma_qp_offset=-2 / threads=12 / lookahead_threads=3 / sliced_threads=0 / nr=0 / decimate=0 / interlaced=0 / bluray_compat=0 / constrained_intra=0 / fgo=0 / bframes=16 / b_pyramid=2 / b_adapt=2 / b_bias=0 / direct=3 / weightb=1 / open_gop=0 / weightp=2 / keyint=250 / keyint_min=25 / scenecut=40 / intra_refresh=0 / rc=crf / mbtree=0 / crf=18.1000 / qcomp=0.75 / qpmin=0:0:0 / qpmax=69:69:69 / qpstep=4 / ip_ratio=1.25 / pb_ratio=1.15 / aq=1:0.85 / aq-sensitivity=10.00 / aq-factor=1.00:1.00:1.00 / aq2=1:0.60 / aq2-sensitivity=15.00 / aq2-factor=1.00:1.00:1.00 / aq3=0 / zones=24,65,q=12/255,288,q=13/466,574,q=12
Language : English
Default : Yes
Forced : No

Audio #1
ID : 2
Format : AC-3
Format/Info : Audio Coding 3
Mode extension : CM (complete main)
Format settings, Endianness : Big
Codec ID : A_AC3
Duration : 1h 37mn
Bit rate mode : Constant
Bit rate : 448 Kbps
Channel count : 6 channels
Channel positions : Front: L C R, Side: L R, LFE
Sampling rate : 48.0 KHz
Bit depth : 16 bits
Compression mode : Lossy
Stream size : 313 MiB (3%)
Title : Russian
Language : Russian
Default : Yes
Forced : No

Audio #2
ID : 3
Format : DTS
Format/Info : Digital Theater Systems
Mode : 16
Format settings, Endianness : Big
Codec ID : A_DTS
Duration : 1h 37mn
Bit rate mode : Constant
Bit rate : 1 509 Kbps
Channel count : 6 channels
Channel positions : Front: L C R, Side: L R, LFE
Sampling rate : 48.0 KHz
Bit depth : 24 bits
Compression mode : Lossy
Stream size : 1.03 GiB (12%)
Title : English
Language : English
Default : No
Forced : No

Text #1
ID : 4
Format : UTF-8
Codec ID : S_TEXT/UTF8
Codec ID/Info : UTF-8 Plain Text
Title : English
Language : English
Default : No
Forced : No

Text #2
ID : 5
Format : UTF-8
Codec ID : S_TEXT/UTF8
Codec ID/Info : UTF-8 Plain Text
Title : Russian
Language : Russian
Default : No
Forced : No

Menu
00:00:00.000 : en:00:00:00.000
00:10:09.280 : en:00:10:09.280
00:20:10.200 : en:00:20:10.200
00:30:10.480 : en:00:30:10.480
00:40:09.200 : en:00:40:09.200
00:50:08.240 : en:00:50:08.240
01:00:37.040 : en:01:00:37.040
01:10:08.520 : en:01:10:08.520
01:20:09.480 : en:01:20:09.480
01:30:09.480 : en:01:30:09.480
01:31:48.360 : en:01:31:48.360



_________________
Проголосуй за трекер Открытый торрент трекер - RUS-MEDIA.ORG

Проголосуй Открытый торрент трекер - RUS-MEDIA.ORG


Вернуться к началу
 Профиль Отправить личное сообщение  
 
   Похожие торренты   Автор   Торрент   Размер 
В этой теме нет новых непрочитанных сообщений. Запретная дорога / Заповедная дорога / Reservation Road [Триллер, драма, криминал, 2007] HDRip, Mvo

salma3

77 | 6

1.46 ГБ

В этой теме нет новых непрочитанных сообщений. Дорога на Арлингтон / Arlington Road [триллер, драма, 1999] BDRip 720p, Dub

salma3

4 | 1

4.37 ГБ

В этой теме нет новых непрочитанных сообщений. Дорога Черной Смолы / Black Tar Road [триллер, драма, криминал, биография, 2016] WEBRip, Mvo

salma3

606 | 155

1.37 ГБ

В этой теме нет новых непрочитанных сообщений. Безумный Макс: Дорога ярости / Mad Max: Fury Road (Джордж Миллер) [фантастика, боевик, триллер, приключения, 2015] BDRip 720p, Dub [iTunes]

Dracon

1196 | 63

4.69 ГБ

В этой теме нет новых непрочитанных сообщений. Дорога / The Road [драма, приключения, 2009] BDRip, Mvo

salma3

44 | 14

2.18 ГБ

В этой теме нет новых непрочитанных сообщений. Дорога без возврата / Road of No Return [боевик, драма, 2009] BDRip-AVC, Mvo

salma3

50 | 8

1.46 ГБ

В этой теме нет новых непрочитанных сообщений. Дорога на Вэлвилл / The Road to Wellville [Драма, комедия, 1994] BDRip 1080p, Mvo

salma3

112 | 23

9.25 ГБ


Начать новую тему Ответить на тему  [ 1 сообщение ] 




Для Мосгорсуда, Роскомнадзора и рекламодателей:: mosgorsud-torrent[собачка]yandex.ru
cron