Торрент файл
скачать торрент магнет ссылка Добавлен: 10 янв 2015, 11:43
Размер: 5.74 ГБ
Сидеров: 22
Личеров: 5
Автор

СообщениеДобавлено: 10 янв 2015, 11:43 

Не в сети
Зам. Админа
Аватара пользователя
Дата регистрации:
02 дек 2010, 12:39
Спасибо: 12620 / 214
Сообщения: 28049
Год выхода: 2015
Жанр: Приключения,Боевик
Режиссер: Майк Эллиот
В ролях: Ройс Грейси, Эсме Бьянко, Майкл Бин, Бэрри Боствик, Стивен Данливи, Грант Эллиотт, Лу Ферриньо, Ли Гилл, Роджер Халстон, Брэндон Хардести

О фильме:
В очередной киноленте о «Царе скорпионов» мы увидим как отстранённый от своего трона король-воин Метайюс принимает решение отправиться на самое страшное и ужасное задание своей жизни. Все это Метайюс решает сделать ради того, чтобы на его земле снова воцарился мир. Все вроде бы шло своим чередом, но однажды от Метайюса отворачивается его самый близкий и лучший друг, такого он никак не мог предвидеть. Теперь герой самолично должен противостоять страшному злодею, который готов на все только бы убить его. Сможет ли Метайюс, приложив все свои силы, противостоять своему противнику?! И добьётся ли наш герой того, ради чего он отважился на эту битву, наступит ли умиротворение на его земле?!

Качество: BDRip [720p]
Видео: AVC High@L4.1  5947 Кбит/сек 1280x720 (1.778)  23.976 кадр/сек
Аудио#1: Русский: AC-3  6 каналов 48,0 КГц  384 Кбит/сек
Аудио#2: Английский: DTS  6 каналов 48,0 КГц  1509 Кбит/сек
Продолжительность: 01:44:51
Перевод: Любительский (многоголосный) [BaibaKo]

Car' skorpionov 4.Quest.for.Power.2015.BDRp.720p.Rus.Eng.mkv
Format                                   : Matroska
Format version                           : Version 4 / Version 2
File size                                : 5.74 GIB
Duration                                 : 1h 44mn
Overall bit rate                         : 7 835 Kbps
Encoded date                             : UTC 2015-01-10 04:26:58
Writing application                      : mkvmerge v7.4.0 ('Circles') 64bit built on Dec 12 2014 12:19:56
Writing library                          : libebml v1.3.0 + libmatroska v1.4.1

Video
ID                                       : 1
Format                                   : AVC
Format/Info                              : Advanced Video Codec
Format profile                           : High@L4.1
Format settings, CABAC                   : Yes
Format settings, ReFrames                : 5 frames
Codec ID                                 : V_MPEG4/ISO/AVC
Duration                                 : 1h 44mn
Nominal bit rate                         : 5 947 Kbps
Width                                    : 1 280 pixels
Height                                   : 720 pixels
Display aspect ratio                     : 16:9
Frame rate mode                          : Constant
Frame rate                               : 23.976 fps
Color space                              : YUV
Chroma subsampling                       : 4:2:0
Bit depth                                : 8 bits
Scan type                                : Progressive
Bits/(Pixel*Frame)                       : 0.269
Writing library                          : x264 core 142 r2479 dd79a61
Encoding settings                        : cabac=1 / ref=5 / deblock=1:0:0 / analyse=0x3:0x133 / me=umh / subme=7 / psy=1 / psy_rd=1.00:0.00 / mixed_ref=1 / me_range=16 / chroma_me=1 / trellis=1 / 8x8dct=1 / cqm=0 / deadzone=21,11 / fast_pskip=0 / chroma_qp_offset=-2 / threads=18 / lookahead_threads=3 / sliced_threads=0 / nr=0 / decimate=1 / interlaced=0 / bluray_compat=0 / constrained_intra=0 / bframes=3 / b_pyramid=2 / b_adapt=1 / b_bias=0 / direct=1 / weightb=1 / open_gop=0 / weightp=2 / keyint=250 / keyint_min=23 / scenecut=40 / intra_refresh=0 / rc_lookahead=40 / rc=2pass / mbtree=1 / bitrate=5947 / ratetol=1.0 / qcomp=0.60 / qpmin=0 / qpmax=69 / qpstep=4 / cplxblur=20.0 / qblur=0.5 / ip_ratio=1.40 / aq=1:1.00
Language                                 : English
Default                                  : Yes
Forced                                   : No

Audio #1
ID                                       : 2
Format                                   : AC-3
Format/Info                              : Audio Coding 3
Mode extension                           : CM (complete main)
Format settings, Endianness              : Big
Codec ID                                 : A_AC3
Duration                                 : 1h 44mn
Bit rate mode                            : Constant
Bit rate                                 : 384 Kbps
Channel count                            : 6 channels
Channel positions                        : Front: L C R, Side: L R, LFE
Sampling rate                            : 48.0 KHz
Bit depth                                : 16 bits
Compression mode                         : Lossy
Stream size                              : 288 MiB (43%)
Language                                 : Russian
Default                                  : Yes
Forced                                   : No

Audio #2
ID                                       : 3
Format                                   : DTS
Format/Info                              : Digital Theater Systems
Mode                                     : 16
Format settings, Endianness              : Big
Codec ID                                 : A_DTS
Duration                                 : 1h 44mn
Bit rate mode                            : Constant
Bit rate                                 : 1 509 Kbps
Channel count                            : 6 channels
Channel positions                        : Front: L C R, Side: L R, LFE
Sampling rate                            : 48.0 KHz
Bit depth                                : 24 bits
Compression mode                         : Lossy
Stream size                              : 1.11 GiB
Language                                 : English
Default                                  : No
Forced                                   : No

Menu
00:00:00.000                             : en:00:00:00.000
00:07:39.000                             : en:00:07:39.000
00:10:13.154                             : en:00:10:13.154
00:13:22.218                             : en:00:13:22.218
00:21:03.888                             : en:00:21:03.888
00:26:13.238                             : en:00:26:13.238
00:29:55.585                             : en:00:29:55.585
00:34:36.157                             : en:00:34:36.157
00:40:55.244                             : en:00:40:55.244
00:45:06.495                             : en:00:45:06.495
00:52:01.994                             : en:00:52:01.994
00:58:16.243                             : en:00:58:16.243
01:05:12.992                             : en:01:05:12.992
01:09:17.236                             : en:01:09:17.236
01:14:57.535                             : en:01:14:57.535
01:19:55.708                             : en:01:19:55.708
01:25:27.289                             : en:01:25:27.289
01:30:08.528                             : en:01:30:08.528
01:35:47.575                             : en:01:35:47.575
01:39:42.018                             : en:01:39:42.018
















реклама партнёра


Вернуться к началу
 Профиль  
 
   Похожие торренты   Автор   Торрент   Размер 
В этой теме нет новых непрочитанных сообщений. Царь скорпионов 4: Утерянный трон / The Scorpion King: The Lost Throne (Майк Эллиот) [Приключения, боевик, 2015] BDRip 1080p [BaibaKo]

Dracon

46 | 10

7.93 ГБ

В этой теме нет новых непрочитанных сообщений. Царь скорпионов 4: Утерянный трон / The Scorpion King: The Lost Throne (Майк Эллиот) [Приключения, боевик, 2015] Blu-Ray [BaibaKo]

Dracon

1 | 5

39.31 ГБ

В этой теме нет новых непрочитанных сообщений. Царь скорпионов 4: Утерянный трон / The Scorpion King: The Lost Throne (Майк Эллиот) [Приключения, боевик, 2015] HDRip [BaibaKo]

Dracon

35 | 6

1.39 ГБ

В этой теме нет новых непрочитанных сообщений. Царь скорпионов 4: Утерянный трон / The Scorpion King: The Lost Throne (Майк Эллиот) [Приключения, боевик, 2015] HDRip [BaibaKo]

Dracon

61 | 5

2.05 ГБ

В этой теме нет новых непрочитанных сообщений. Царь скорпионов 4: Утерянный трон / The Scorpion King: The Lost Throne (Майк Эллиот) [2015, драма, комедия, мелодрама, биография, HDRip | BaiBaKo]

Nickolas3435

667 | 50

744.79 МБ

В этой теме нет новых непрочитанных сообщений. Царь скорпионов / The Scorpion King [фэнтези, боевик, триллер, 2002] BDRip 1080p, Dub+Sub

salma3

31 | 17

4.37 ГБ

В этой теме нет новых непрочитанных сообщений. Лига Справедливости: Трон Атлантиды / Justice League: Throne of Atlantis (Джей Олива, Этан Сполдинг) [боевик, приключения, 2015] BDRip 720p, mvo+sub [Чистый звук]

Dracon

30 | 4

2.29 ГБ


Начать новую тему Ответить на тему  [ 1 сообщение ] 




Для Мосгорсуда, Роскомнадзора и рекламодателей:: mosgorsud-torrent[собачка]yandex.ru